  0
SECTION
  2
HEADER
  9
$ACADVER
  1
AC1015
  9
$ACADMAINTVER
 70
    13
  9
$DWGCODEPAGE
  3
ANSI_1252
  9
$INSBASE
 10
0.0
 20
0.0
 30
0.0
  9
$EXTMIN
 10
-650.4231736287819
 20
-32.0494533391407
 30
0.0
  9
$EXTMAX
 10
53.25476135887629
 20
540.7656450316722
 30
0.0
  9
$LIMMIN
 10
0.0
 20
0.0
  9
$LIMMAX
 10
420.0
 20
297.0
  9
$ORTHOMODE
 70
     0
  9
$REGENMODE
 70
     1
  9
$FILLMODE
 70
     1
  9
$QTEXTMODE
 70
     0
  9
$MIRRTEXT
 70
     1
  9
$LTSCALE
 40
1.0
  9
$ATTMODE
 70
     1
  9
$TEXTSIZE
 40
2.5
  9
$TRACEWID
 40
1.0
  9
$TEXTSTYLE
  7
Standard
  9
$CLAYER
  8
Dimensions
  9
$CELTYPE
  6
ACAD_ISO02W100
  9
$CECOLOR
 62
   256
  9
$CELTSCALE
 40
1.0
  9
$DISPSILH
 70
     0
  9
$DIMSCALE
 40
1.0
  9
$DIMASZ
 40
10.0
  9
$DIMEXO
 40
5.0
  9
$DIMDLI
 40
3.75
  9
$DIMRND
 40
0.0
  9
$DIMDLE
 40
0.0
  9
$DIMEXE
 40
3.0
  9
$DIMTP
 40
0.0
  9
$DIMTM
 40
0.0
  9
$DIMTXT
 40
10.0
  9
$DIMCEN
 40
2.5
  9
$DIMTSZ
 40
0.0
  9
$DIMTOL
 70
     0
  9
$DIMLIM
 70
     0
  9
$DIMTIH
 70
     0
  9
$DIMTOH
 70
     0
  9
$DIMSE1
 70
     0
  9
$DIMSE2
 70
     0
  9
$DIMTAD
 70
     0
  9
$DIMZIN
 70
     8
  9
$DIMBLK
  1

  9
$DIMASO
 70
     1
  9
$DIMSHO
 70
     1
  9
$DIMPOST
  1

  9
$DIMAPOST
  1

  9
$DIMALT
 70
     0
  9
$DIMALTD
 70
     3
  9
$DIMALTF
 40
0.03937007874016
  9
$DIMLFAC
 40
1.0
  9
$DIMTOFL
 70
     1
  9
$DIMTVP
 40
0.0
  9
$DIMTIX
 70
     0
  9
$DIMSOXD
 70
     0
  9
$DIMSAH
 70
     0
  9
$DIMBLK1
  1

  9
$DIMBLK2
  1

  9
$DIMSTYLE
  2
Copy of ISO-25
  9
$DIMCLRD
 70
     0
  9
$DIMCLRE
 70
     0
  9
$DIMCLRT
 70
     0
  9
$DIMTFAC
 40
1.0
  9
$DIMGAP
 40
5.0
  9
$DIMJUST
 70
     0
  9
$DIMSD1
 70
     0
  9
$DIMSD2
 70
     0
  9
$DIMTOLJ
 70
     0
  9
$DIMTZIN
 70
     8
  9
$DIMALTZ
 70
     0
  9
$DIMALTTZ
 70
     0
  9
$DIMUPT
 70
     0
  9
$DIMDEC
 70
     0
  9
$DIMTDEC
 70
     0
  9
$DIMALTU
 70
     2
  9
$DIMALTTD
 70
     3
  9
$DIMTXSTY
  7
Standard
  9
$DIMAUNIT
 70
     0
  9
$DIMADEC
 70
     0
  9
$DIMALTRND
 40
0.0
  9
$DIMAZIN
 70
     0
  9
$DIMDSEP
 70
    46
  9
$DIMATFIT
 70
     3
  9
$DIMFRAC
 70
     0
  9
$DIMLDRBLK
  1

  9
$DIMLUNIT
 70
     2
  9
$DIMLWD
 70
    -2
  9
$DIMLWE
 70
    -2
  9
$DIMTMOVE
 70
     0
  9
$LUNITS
 70
     2
  9
$LUPREC
 70
     4
  9
$SKETCHINC
 40
1.0
  9
$FILLETRAD
 40
10.0
  9
$AUNITS
 70
     0
  9
$AUPREC
 70
     0
  9
$MENU
  1
.
  9
$ELEVATION
 40
0.0
  9
$PELEVATION
 40
0.0
  9
$THICKNESS
 40
0.0
  9
$LIMCHECK
 70
     0
  9
$CHAMFERA
 40
10.0
  9
$CHAMFERB
 40
10.0
  9
$CHAMFERC
 40
20.0
  9
$CHAMFERD
 40
0.0
  9
$SKPOLY
 70
     0
  9
$TDCREATE
 40
2456260.941621944
  9
$TDUCREATE
 40
2456260.504121944
  9
$TDUPDATE
 40
2456261.950999444
  9
$TDUUPDATE
 40
2456261.513499444
  9
$TDINDWG
 40
0.1410053241
  9
$TDUSRTIMER
 40
0.1410049653
  9
$USRTIMER
 70
     1
  9
$ANGBASE
 50
0.0
  9
$ANGDIR
 70
     0
  9
$PDMODE
 70
     0
  9
$PDSIZE
 40
0.0
  9
$PLINEWID
 40
0.0
  9
$SPLFRAME
 70
     0
  9
$SPLINETYPE
 70
     6
  9
$SPLINESEGS
 70
     8
  9
$HANDSEED
  5
E64
  9
$SURFTAB1
 70
     6
  9
$SURFTAB2
 70
     6
  9
$SURFTYPE
 70
     6
  9
$SURFU
 70
     6
  9
$SURFV
 70
     6
  9
$UCSBASE
  2

  9
$UCSNAME
  2

  9
$UCSORG
 10
0.0
 20
0.0
 30
0.0
  9
$UCSXDIR
 10
1.0
 20
0.0
 30
0.0
  9
$UCSYDIR
 10
0.0
 20
1.0
 30
0.0
  9
$UCSORTHOREF
  2

  9
$UCSORTHOVIEW
 70
     0
  9
$UCSORGTOP
 10
0.0
 20
0.0
 30
0.0
  9
$UCSORGBOTTOM
 10
0.0
 20
0.0
 30
0.0
  9
$UCSORGLEFT
 10
0.0
 20
0.0
 30
0.0
  9
$UCSORGRIGHT
 10
0.0
 20
0.0
 30
0.0
  9
$UCSORGFRONT
 10
0.0
 20
0.0
 30
0.0
  9
$UCSORGBACK
 10
0.0
 20
0.0
 30
0.0
  9
$PUCSBASE
  2

  9
$PUCSNAME
  2

  9
$PUCSORG
 10
0.0
 20
0.0
 30
0.0
  9
$PUCSXDIR
 10
1.0
 20
0.0
 30
0.0
  9
$PUCSYDIR
 10
0.0
 20
1.0
 30
0.0
  9
$PUCSORTHOREF
  2

  9
$PUCSORTHOVIEW
 70
     0
  9
$PUCSORGTOP
 10
0.0
 20
0.0
 30
0.0
  9
$PUCSORGBOTTOM
 10
0.0
 20
0.0
 30
0.0
  9
$PUCSORGLEFT
 10
0.0
 20
0.0
 30
0.0
  9
$PUCSORGRIGHT
 10
0.0
 20
0.0
 30
0.0
  9
$PUCSORGFRONT
 10
0.0
 20
0.0
 30
0.0
  9
$PUCSORGBACK
 10
0.0
 20
0.0
 30
0.0
  9
$USERI1
 70
     0
  9
$USERI2
 70
     0
  9
$USERI3
 70
     0
  9
$USERI4
 70
     0
  9
$USERI5
 70
     0
  9
$USERR1
 40
0.0
  9
$USERR2
 40
0.0
  9
$USERR3
 40
0.0
  9
$USERR4
 40
0.0
  9
$USERR5
 40
0.0
  9
$WORLDVIEW
 70
     1
  9
$SHADEDGE
 70
     3
  9
$SHADEDIF
 70
    70
  9
$TILEMODE
 70
     1
  9
$MAXACTVP
 70
    64
  9
$PINSBASE
 10
0.0
 20
0.0
 30
0.0
  9
$PLIMCHECK
 70
     0
  9
$PEXTMIN
 10
1.000000000000000E+20
 20
1.000000000000000E+20
 30
1.000000000000000E+20
  9
$PEXTMAX
 10
-1.000000000000000E+20
 20
-1.000000000000000E+20
 30
-1.000000000000000E+20
  9
$PLIMMIN
 10
0.0
 20
0.0
  9
$PLIMMAX
 10
420.0
 20
297.0
  9
$UNITMODE
 70
     0
  9
$VISRETAIN
 70
     1
  9
$PLINEGEN
 70
     0
  9
$PSLTSCALE
 70
     1
  9
$TREEDEPTH
 70
  3020
  9
$CMLSTYLE
  2
Standard
  9
$CMLJUST
 70
     0
  9
$CMLSCALE
 40
20.0
  9
$PROXYGRAPHICS
 70
     1
  9
$MEASUREMENT
 70
     1
  9
$CELWEIGHT
370
    -1
  9
$ENDCAPS
280
     0
  9
$JOINSTYLE
280
     0
  9
$LWDISPLAY
290
     0
  9
$INSUNITS
 70
     4
  9
$HYPERLINKBASE
  1

  9
$STYLESHEET
  1

  9
$XEDIT
290
     1
  9
$CEPSNTYPE
380
     0
  9
$PSTYLEMODE
290
     1
  9
$FINGERPRINTGUID
  2
{52878EA4-82BC-4E67-B72A-FA1EFA60E85D}
  9
$VERSIONGUID
  2
{027B4412-2CAA-4857-B51E-F21EB50D67E2}
  9
$EXTNAMES
290
     1
  9
$PSVPSCALE
 40
0.0
  9
$OLESTARTUP
290
     0
  0
ENDSEC
  0
SECTION
  2
CLASSES
  0
CLASS
  1
ACDBDICTIONARYWDFLT
  2
AcDbDictionaryWithDefault
  3
AutoCAD 2000
 90
        0
280
     0
281
     0
  0
CLASS
  1
ACDBPLACEHOLDER
  2
AcDbPlaceHolder
  3
AutoCAD 2000
 90
        0
280
     0
281
     0
  0
CLASS
  1
LAYOUT
  2
AcDbLayout
  3
AutoCAD 2000
 90
        0
280
     0
281
     0
  0
CLASS
  1
DIMASSOC
  2
AcDbDimAssoc
  3
"AcDbDimAssoc|Product Desc:     AcDim ARX App For Dimension|Company:          Autodesk, Inc.|WEB Address:      www.autodesk.com"
 90
        0
280
     0
281
     0
  0
CLASS
  1
DICTIONARYVAR
  2
AcDbDictionaryVar
  3
AutoCAD 2000
 90
        0
280
     0
281
     0
  0
ENDSEC
  0
SECTION
  2
TABLES
  0
TABLE
  2
VPORT
  5
8
330
0
100
AcDbSymbolTable
 70
     2
  0
VPORT
  5
E63
330
8
100
AcDbSymbolTableRecord
100
AcDbViewportTableRecord
  2
*Active
 70
     0
 10
0.0
 20
0.0
 11
1.0
 21
1.0
 12
-90.60613124152485
 22
234.1115413702337
 13
0.0
 23
0.0
 14
10.0
 24
10.0
 15
10.0
 25
10.0
 16
0.0
 26
0.0
 36
1.0
 17
0.0
 27
0.0
 37
0.0
 40
810.9975604403599
 41
2.424812030075187
 42
50.0
 43
0.0
 44
0.0
 50
0.0
 51
0.0
 71
     0
 72
   100
 73
     1
 74
     3
 75
     0
 76
     0
 77
     0
 78
     0
281
     0
 65
     1
110
0.0
120
0.0
130
0.0
111
1.0
121
0.0
131
0.0
112
0.0
122
1.0
132
0.0
 79
     0
146
0.0
  0
ENDTAB
  0
TABLE
  2
LTYPE
  5
5
330
0
100
AcDbSymbolTable
 70
     3
  0
LTYPE
  5
14
330
5
100
AcDbSymbolTableRecord
100
AcDbLinetypeTableRecord
  2
ByBlock
 70
     0
  3

 72
    65
 73
     0
 40
0.0
  0
LTYPE
  5
15
330
5
100
AcDbSymbolTableRecord
100
AcDbLinetypeTableRecord
  2
ByLayer
 70
     0
  3

 72
    65
 73
     0
 40
0.0
  0
LTYPE
  5
16
330
5
100
AcDbSymbolTableRecord
100
AcDbLinetypeTableRecord
  2
Continuous
 70
     0
  3
Solid line
 72
    65
 73
     0
 40
0.0
  0
LTYPE
  5
95A
330
5
100
AcDbSymbolTableRecord
100
AcDbLinetypeTableRecord
  2
ACAD_ISO02W100
 70
     0
  3
ISO dash __ __ __ __ __ __ __ __ __ __ __ __ __
 72
    65
 73
     2
 40
15.0
 49
12.0
 74
     0
 49
-3.0
 74
     0
  0
LTYPE
  5
95B
330
5
100
AcDbSymbolTableRecord
100
AcDbLinetypeTableRecord
  2
HIDDEN2
 70
     0
  3
Hidden (.5x) _ _ _ _ _ _ _ _ _ _ _ _ _ _ _ _ _
 72
    65
 73
     2
 40
4.762499999999999
 49
3.174999999999999
 74
     0
 49
-1.587499999999999
 74
     0
  0
ENDTAB
  0
TABLE
  2
LAYER
  5
2
330
0
100
AcDbSymbolTable
 70
     4
  0
LAYER
  5
10
330
2
100
AcDbSymbolTableRecord
100
AcDbLayerTableRecord
  2
0
 70
     0
 62
     7
  6
Continuous
370
    -3
390
F
  0
LAYER
  5
5F
330
2
100
AcDbSymbolTableRecord
100
AcDbLayerTableRecord
  2
Defpoints
 70
     0
 62
     7
  6
Continuous
290
     0
370
    -3
390
F
  0
LAYER
  5
7B
330
2
100
AcDbSymbolTableRecord
100
AcDbLayerTableRecord
  2
Deck profile
 70
     0
 62
     7
  6
Continuous
370
    -3
390
F
  0
LAYER
  5
107
330
2
100
AcDbSymbolTableRecord
100
AcDbLayerTableRecord
  2
Dimensions
 70
     0
 62
     7
  6
Continuous
370
    -3
390
F
  0
ENDTAB
  0
TABLE
  2
STYLE
  5
3
330
0
100
AcDbSymbolTable
 70
     2
  0
STYLE
  5
11
330
3
100
AcDbSymbolTableRecord
100
AcDbTextStyleTableRecord
  2
Standard
 70
     0
 40
0.0
 41
1.0
 50
0.0
 71
     0
 42
2.5
  3
txt
  4

  0
STYLE
  5
959
330
3
100
AcDbSymbolTableRecord
100
AcDbTextStyleTableRecord
  2

 70
     1
 40
0.0
 41
1.0
 50
0.0
 71
     0
 42
2.5
  3
ltypeshp.shx
  4

  0
ENDTAB
  0
TABLE
  2
VIEW
  5
6
330
0
100
AcDbSymbolTable
 70
     0
  0
ENDTAB
  0
TABLE
  2
UCS
  5
7
330
0
100
AcDbSymbolTable
 70
     0
  0
ENDTAB
  0
TABLE
  2
APPID
  5
9
330
0
100
AcDbSymbolTable
 70
     1
  0
APPID
  5
12
330
9
100
AcDbSymbolTableRecord
100
AcDbRegAppTableRecord
  2
ACAD
 70
     0
  0
ENDTAB
  0
TABLE
  2
DIMSTYLE
  5
A
330
0
100
AcDbSymbolTable
 70
     2
100
AcDbDimStyleTable
 71
     2
340
108
340
27
  0
DIMSTYLE
105
27
330
A
100
AcDbSymbolTableRecord
100
AcDbDimStyleTableRecord
  2
ISO-25
 70
     0
 41
2.5
 42
0.625
 43
3.75
 44
1.25
 73
     0
 74
     0
 77
     1
 78
     8
140
2.5
141
2.5
143
0.03937007874016
147
0.625
171
     3
172
     1
271
     2
272
     2
274
     3
278
    44
283
     0
284
     8
340
11
  0
DIMSTYLE
105
108
102
{ACAD_REACTORS
330
B00
330
B1A
330
C1B
330
C3D
330
A8C
330
A72
330
A58
330
A3E
330
A24
330
9BC
330
A0A
330
9F0
330
9D6
330
E1B
102
}
330
A
100
AcDbSymbolTableRecord
100
AcDbDimStyleTableRecord
  2
Copy of ISO-25
 70
     0
 41
10.0
 42
5.0
 43
3.75
 44
3.0
 73
     0
 74
     0
 78
     8
140
10.0
141
2.5
143
0.03937007874016
147
5.0
171
     3
172
     1
271
     0
272
     0
274
     3
283
     0
284
     8
340
11
  0
ENDTAB
  0
TABLE
  2
BLOCK_RECORD
  5
1
330
0
100
AcDbSymbolTable
 70
    26
  0
BLOCK_RECORD
  5
1F
330
1
100
AcDbSymbolTableRecord
100
AcDbBlockTableRecord
  2
*Model_Space
340
22
  0
BLOCK_RECORD
  5
1B
330
1
100
AcDbSymbolTableRecord
100
AcDbBlockTableRecord
  2
*Paper_Space
340
1E
  0
BLOCK_RECORD
  5
23
330
1
100
AcDbSymbolTableRecord
100
AcDbBlockTableRecord
  2
*Paper_Space0
340
26
  0
BLOCK_RECORD
  5
9BD
330
1
100
AcDbSymbolTableRecord
100
AcDbBlockTableRecord
  2
*D11
340
0
  0
BLOCK_RECORD
  5
9D7
330
1
100
AcDbSymbolTableRecord
100
AcDbBlockTableRecord
  2
*D12
340
0
  0
BLOCK_RECORD
  5
9F1
330
1
100
AcDbSymbolTableRecord
100
AcDbBlockTableRecord
  2
*D13
340
0
  0
BLOCK_RECORD
  5
A0B
330
1
100
AcDbSymbolTableRecord
100
AcDbBlockTableRecord
  2
*D14
340
0
  0
BLOCK_RECORD
  5
A25
330
1
100
AcDbSymbolTableRecord
100
AcDbBlockTableRecord
  2
*D15
340
0
  0
BLOCK_RECORD
  5
A3F
330
1
100
AcDbSymbolTableRecord
100
AcDbBlockTableRecord
  2
*D16
340
0
  0
BLOCK_RECORD
  5
A59
330
1
100
AcDbSymbolTableRecord
100
AcDbBlockTableRecord
  2
*D17
340
0
  0
BLOCK_RECORD
  5
A73
330
1
100
AcDbSymbolTableRecord
100
AcDbBlockTableRecord
  2
*D18
340
0
  0
BLOCK_RECORD
  5
A8D
330
1
100
AcDbSymbolTableRecord
100
AcDbBlockTableRecord
  2
*D19
340
0
  0
BLOCK_RECORD
  5
B01
330
1
100
AcDbSymbolTableRecord
100
AcDbBlockTableRecord
  2
*D20
340
0
  0
BLOCK_RECORD
  5
B1B
330
1
100
AcDbSymbolTableRecord
100
AcDbBlockTableRecord
  2
*D21
340
0
  0
BLOCK_RECORD
  5
C1C
330
1
100
AcDbSymbolTableRecord
100
AcDbBlockTableRecord
  2
*D22
340
0
  0
BLOCK_RECORD
  5
C3E
330
1
100
AcDbSymbolTableRecord
100
AcDbBlockTableRecord
  2
*D23
340
0
  0
BLOCK_RECORD
  5
E1C
330
1
100
AcDbSymbolTableRecord
100
AcDbBlockTableRecord
  2
*D25
340
0
  0
ENDTAB
  0
ENDSEC
  0
SECTION
  2
BLOCKS
  0
BLOCK
  5
20
330
1F
100
AcDbEntity
  8
0
100
AcDbBlockBegin
  2
*Model_Space
 70
     0
 10
0.0
 20
0.0
 30
0.0
  3
*Model_Space
  1

  0
ENDBLK
  5
21
330
1F
100
AcDbEntity
  8
0
100
AcDbBlockEnd
  0
BLOCK
  5
1C
330
1B
100
AcDbEntity
 67
     1
  8
0
100
AcDbBlockBegin
  2
*Paper_Space
 70
     0
 10
0.0
 20
0.0
 30
0.0
  3
*Paper_Space
  1

  0
ENDBLK
  5
1D
330
1B
100
AcDbEntity
 67
     1
  8
0
100
AcDbBlockEnd
  0
BLOCK
  5
24
330
23
100
AcDbEntity
  8
0
100
AcDbBlockBegin
  2
*Paper_Space0
 70
     0
 10
0.0
 20
0.0
 30
0.0
  3
*Paper_Space0
  1

  0
ENDBLK
  5
25
330
23
100
AcDbEntity
  8
0
100
AcDbBlockEnd
  0
BLOCK
  5
9C8
330
9BD
100
AcDbEntity
  8
0
100
AcDbBlockBegin
  2
*D11
 70
     1
 10
0.0
 20
0.0
 30
0.0
  3
*D11
  1

  0
LINE
  5
DA1
330
9BD
100
AcDbEntity
  8
Dimensions
 62
     0
370
    -2
100
AcDbLine
 10
-366.0142255236079
 20
287.0940369778002
 30
0.0
 11
-367.5671055121713
 21
288.3544193567309
 31
0.0
  0
LINE
  5
DA2
330
9BD
100
AcDbEntity
  8
Dimensions
 62
     0
370
    -2
100
AcDbLine
 10
-447.6190547412715
 20
202.4193318674489
 30
0.0
 11
-446.066174752708
 21
201.1589494885182
 31
0.0
  0
LINE
  5
DA3
330
9BD
100
AcDbEntity
  8
Dimensions
 62
     0
370
    -2
100
AcDbLine
 10
-376.1983373896703
 20
282.4805929823099
 30
0.0
 11
-397.3637722904587
 21
256.4032843368503
 31
0.0
  0
LINE
  5
DA4
330
9BD
100
AcDbEntity
  8
Dimensions
 62
     0
370
    -2
100
AcDbLine
 10
-437.4349428752089
 20
207.0327758629392
 30
0.0
 11
-416.2695079744205
 21
233.1100845083987
 31
0.0
  0
SOLID
  5
DA5
330
9BD
100
AcDbEntity
  8
Dimensions
 62
     0
100
AcDbTrace
 10
-377.4924040468065
 20
283.5309116314189
 30
0.0
 11
-374.9042707325341
 21
281.4302743332009
 31
0.0
 12
-369.8964254950164
 22
290.2449929251271
 32
0.0
 13
-369.8964254950164
 23
290.2449929251271
 33
0.0
  0
SOLID
  5
DA6
330
9BD
100
AcDbEntity
  8
Dimensions
 62
     0
100
AcDbTrace
 10
-438.7290095323451
 20
208.0830945120482
 30
0.0
 11
-436.1408762180728
 21
205.9824572138302
 31
0.0
 12
-443.7368547698627
 22
199.268375920122
 32
0.0
 13
-443.7368547698627
 23
199.268375920122
 33
0.0
  0
MTEXT
  5
DA7
330
9BD
100
AcDbEntity
  8
Dimensions
 62
     0
100
AcDbMText
 10
-406.8166401324396
 20
244.7566844226245
 30
0.0
 40
10.0
 41
0.0
 71
     5
 72
     1
  1
117
 11
0.6301911894653907
 21
0.7764399942817192
 31
0.0
 73
     1
 44
1.0
  0
POINT
  5
DA8
330
9BD
100
AcDbEntity
  8
Defpoints
 62
     0
100
AcDbPoint
 10
-369.8964254950165
 20
290.2449929251271
 30
0.0
  0
POINT
  5
DA9
330
9BD
100
AcDbEntity
  8
Defpoints
 62
     0
100
AcDbPoint
 10
-443.7368547698627
 20
199.268375920122
 30
0.0
  0
POINT
  5
DAA
330
9BD
100
AcDbEntity
  8
Defpoints
 62
     0
100
AcDbPoint
 10
-443.7368547698627
 20
199.268375920122
 30
0.0
  0
ENDBLK
  5
9C9
330
9BD
100
AcDbEntity
  8
0
100
AcDbBlockEnd
  0
BLOCK
  5
9E2
330
9D7
100
AcDbEntity
  8
0
100
AcDbBlockBegin
  2
*D12
 70
     1
 10
0.0
 20
0.0
 30
0.0
  3
*D12
  1

  0
LINE
  5
E0F
330
9D7
100
AcDbEntity
  8
Dimensions
 62
     0
370
    -2
100
AcDbLine
 10
-559.4709377218094
 20
439.1375619264241
 30
0.0
 11
-557.9250729062938
 21
437.868585184261
 31
0.0
  0
LINE
  5
E10
330
9D7
100
AcDbEntity
  8
Dimensions
 62
     0
370
    -2
100
AcDbLine
 10
-583.3641063075726
 20
410.0309538849324
 30
0.0
 11
-581.8182414920571
 21
408.7619771427693
 31
0.0
  0
LINE
  5
E11
330
9D7
100
AcDbEntity
  8
Dimensions
 62
     0
370
    -2
100
AcDbLine
 10
-561.9511593938364
 20
428.2357959934385
 30
0.0
 11
-573.1545605579679
 21
414.5878361071022
 31
0.0
  0
LINE
  5
E12
330
9D7
100
AcDbEntity
  8
Dimensions
 62
     0
370
    -2
100
AcDbLine
 10
-579.4994442687838
 20
406.8585120295244
 30
0.0
 11
-597.6282995586682
 21
384.7739783993555
 31
0.0
  0
SOLID
  5
E13
330
9D7
100
AcDbEntity
  8
Dimensions
 62
     0
100
AcDbTrace
 10
-563.2393800734328
 20
429.2932766119077
 30
0.0
 11
-560.6629387142402
 21
427.1783153749692
 31
0.0
 12
-555.6062756830205
 22
435.9651200710161
 32
0.0
 13
-555.6062756830205
 23
435.9651200710161
 33
0.0
  0
SOLID
  5
E14
330
9D7
100
AcDbEntity
  8
Dimensions
 62
     0
100
AcDbTrace
 10
-574.4427812375642
 20
415.6453167255715
 30
0.0
 11
-571.8663398783717
 21
413.5303554886329
 31
0.0
 12
-579.4994442687838
 22
406.8585120295244
 32
0.0
 13
-579.4994442687838
 23
406.8585120295244
 33
0.0
  0
MTEXT
  5
E15
330
9D7
100
AcDbEntity
  8
Dimensions
 62
     0
100
AcDbMText
 10
-606.0881445064227
 20
374.4682129625851
 30
0.0
 40
10.0
 41
0.0
 71
     5
 72
     1
  1
38
 11
0.6344883710815916
 21
0.7729324077577734
 31
0.0
 73
     1
 44
1.0
  0
POINT
  5
E16
330
9D7
100
AcDbEntity
  8
Defpoints
 62
     0
100
AcDbPoint
 10
-555.6062756830205
 20
435.9651200710161
 30
0.0
  0
POINT
  5
E17
330
9D7
100
AcDbEntity
  8
Defpoints
 62
     0
100
AcDbPoint
 10
-579.4994442687838
 20
406.8585120295244
 30
0.0
  0
POINT
  5
E18
330
9D7
100
AcDbEntity
  8
Defpoints
 62
     0
100
AcDbPoint
 10
-579.4994442687838
 20
406.8585120295244
 30
0.0
  0
ENDBLK
  5
9E3
330
9D7
100
AcDbEntity
  8
0
100
AcDbBlockEnd
  0
BLOCK
  5
9FC
330
9F1
100
AcDbEntity
  8
0
100
AcDbBlockBegin
  2
*D13
 70
     1
 10
0.0
 20
0.0
 30
0.0
  3
*D13
  1

  0
LINE
  5
DAB
330
9F1
100
AcDbEntity
  8
Dimensions
 62
     0
370
    -2
100
AcDbLine
 10
-497.8381295741274
 20
390.7026303046677
 30
0.0
 11
-496.2776342530895
 21
389.451688917944
 31
0.0
  0
LINE
  5
DAC
330
9F1
100
AcDbEntity
  8
Dimensions
 62
     0
370
    -2
100
AcDbLine
 10
-541.6297750375701
 20
336.0744450263526
 30
0.0
 11
-540.0692797165321
 21
334.8235036396289
 31
0.0
  0
LINE
  5
DAD
330
9F1
100
AcDbEntity
  8
Dimensions
 62
     0
370
    -2
100
AcDbLine
 10
-500.1915982051513
 20
379.7728002326681
 30
0.0
 11
-508.0143303362302
 21
370.0142799551885
 31
0.0
  0
LINE
  5
DAE
330
9F1
100
AcDbEntity
  8
Dimensions
 62
     0
370
    -2
100
AcDbLine
 10
-531.4738298013562
 20
340.7495681647334
 30
0.0
 11
-523.6510976702773
 21
350.5080884422131
 31
0.0
  0
SOLID
  5
DAF
330
9F1
100
AcDbEntity
  8
Dimensions
 62
     0
100
AcDbTrace
 10
-501.492010972683
 20
380.8152513882713
 30
0.0
 11
-498.8911854376197
 21
378.730349077065
 31
0.0
 12
-493.9368912715324
 22
387.5752768378583
 32
0.0
 13
-493.9368912715324
 23
387.5752768378583
 33
0.0
  0
SOLID
  5
DB0
330
9F1
100
AcDbEntity
  8
Dimensions
 62
     0
100
AcDbTrace
 10
-532.7742425688878
 20
341.7920193203365
 30
0.0
 11
-530.1734170338245
 21
339.7071170091303
 31
0.0
 12
-537.7285367349751
 22
332.9470915595432
 32
0.0
 13
-537.7285367349751
 23
332.9470915595432
 33
0.0
  0
MTEXT
  5
DB1
330
9F1
100
AcDbEntity
  8
Dimensions
 62
     0
100
AcDbMText
 10
-515.8327140032538
 20
360.2611841987008
 30
0.0
 40
10.0
 41
0.0
 71
     5
 72
     1
  1
70
 11
0.625470693361887
 21
0.7802476605190178
 31
0.0
 73
     1
 44
1.0
  0
POINT
  5
DB2
330
9F1
100
AcDbEntity
  8
Defpoints
 62
     0
100
AcDbPoint
 10
-493.9368912715323
 20
387.5752768378582
 30
0.0
  0
POINT
  5
DB3
330
9F1
100
AcDbEntity
  8
Defpoints
 62
     0
100
AcDbPoint
 10
-537.728536734975
 20
332.9470915595432
 30
0.0
  0
POINT
  5
DB4
330
9F1
100
AcDbEntity
  8
Defpoints
 62
     0
100
AcDbPoint
 10
-537.7285367349751
 20
332.9470915595432
 30
0.0
  0
ENDBLK
  5
9FD
330
9F1
100
AcDbEntity
  8
0
100
AcDbBlockEnd
  0
BLOCK
  5
A16
330
A0B
100
AcDbEntity
  8
0
100
AcDbBlockBegin
  2
*D14
 70
     1
 10
0.0
 20
0.0
 30
0.0
  3
*D14
  1

  0
LINE
  5
D97
330
A0B
100
AcDbEntity
  8
Dimensions
 62
     0
370
    -2
100
AcDbLine
 10
-427.6719208406979
 20
335.4580146627569
 30
0.0
 11
-429.2214844020929
 21
336.7224721627133
 31
0.0
  0
LINE
  5
D98
330
A0B
100
AcDbEntity
  8
Dimensions
 62
     0
370
    -2
100
AcDbLine
 10
-487.7539469636982
 20
261.828874594235
 30
0.0
 11
-489.3035105250931
 21
263.0933320941914
 31
0.0
  0
LINE
  5
D99
330
A0B
100
AcDbEntity
  8
Dimensions
 62
     0
370
    -2
100
AcDbLine
 10
-437.8681172439683
 20
330.8713406056724
 30
0.0
 11
-453.1571261393088
 21
312.1350121210216
 31
0.0
  0
LINE
  5
D9A
330
A0B
100
AcDbEntity
  8
Dimensions
 62
     0
370
    -2
100
AcDbLine
 10
-485.3055683674032
 20
272.737836151102
 30
0.0
 11
-470.0165594720627
 21
291.4741646357528
 31
0.0
  0
SOLID
  5
D9B
330
A0B
100
AcDbEntity
  8
Dimensions
 62
     0
100
AcDbTrace
 10
-439.1594202117976
 20
331.9250551889695
 30
0.0
 11
-436.5768142761391
 21
329.8176260223753
 31
0.0
 12
-431.5458297441856
 22
338.6191584126482
 32
0.0
 13
-431.5458297441856
 23
338.6191584126482
 33
0.0
  0
SOLID
  5
D9C
330
A0B
100
AcDbEntity
  8
Dimensions
 62
     0
100
AcDbTrace
 10
-486.5968713352324
 20
273.791550734399
 30
0.0
 11
-484.0142653995739
 21
271.6841215678049
 31
0.0
 12
-491.6278558671859
 22
264.9900183441262
 32
0.0
 13
-491.6278558671859
 23
264.9900183441262
 33
0.0
  0
MTEXT
  5
D9D
330
A0B
100
AcDbEntity
  8
Dimensions
 62
     0
100
AcDbMText
 10
-461.5868428056857
 20
301.8045883783871
 30
0.0
 40
10.0
 41
0.0
 71
     5
 72
     1
  1
95
 11
0.6322287499782709
 21
0.7747817806975802
 31
0.0
 73
     1
 44
1.0
  0
POINT
  5
D9E
330
A0B
100
AcDbEntity
  8
Defpoints
 62
     0
100
AcDbPoint
 10
-431.5458297441858
 20
338.6191584126483
 30
0.0
  0
POINT
  5
D9F
330
A0B
100
AcDbEntity
  8
Defpoints
 62
     0
100
AcDbPoint
 10
-491.627855867186
 20
264.9900183441264
 30
0.0
  0
POINT
  5
DA0
330
A0B
100
AcDbEntity
  8
Defpoints
 62
     0
100
AcDbPoint
 10
-491.6278558671859
 20
264.9900183441262
 30
0.0
  0
ENDBLK
  5
A17
330
A0B
100
AcDbEntity
  8
0
100
AcDbBlockEnd
  0
BLOCK
  5
A30
330
A25
100
AcDbEntity
  8
0
100
AcDbBlockBegin
  2
*D15
 70
     1
 10
0.0
 20
0.0
 30
0.0
  3
*D15
  1

  0
LINE
  5
DB5
330
A25
100
AcDbEntity
  8
Dimensions
 62
     0
370
    -2
100
AcDbLine
 10
-312.1523335628908
 20
244.9930919533615
 30
0.0
 11
-310.5902086360734
 21
243.7441861470593
 31
0.0
  0
LINE
  5
DB6
330
A25
100
AcDbEntity
  8
Dimensions
 62
     0
370
    -2
100
AcDbLine
 10
-393.0374770183593
 20
143.8223726217682
 30
0.0
 11
-391.4753520915418
 21
142.573466815466
 31
0.0
  0
LINE
  5
DB7
330
A25
100
AcDbEntity
  8
Dimensions
 62
     0
370
    -2
100
AcDbLine
 10
-314.4915502773582
 20
234.0602028035184
 30
0.0
 11
-338.8024220070221
 21
203.6522901091146
 31
0.0
  0
LINE
  5
DB8
330
A25
100
AcDbEntity
  8
Dimensions
 62
     0
370
    -2
100
AcDbLine
 10
-382.8876356698045
 20
148.5107327401003
 30
0.0
 11
-358.5767639401404
 21
178.918645434504
 31
0.0
  0
SOLID
  5
DB9
330
A25
100
AcDbEntity
  8
Dimensions
 62
     0
100
AcDbTrace
 10
-315.7933210497061
 20
235.1009576421036
 30
0.0
 11
-313.1897795050103
 21
233.0194479649332
 31
0.0
 12
-308.2470212458471
 22
241.870827437606
 32
0.0
 13
-308.2470212458471
 23
241.870827437606
 33
0.0
  0
SOLID
  5
DBA
330
A25
100
AcDbEntity
  8
Dimensions
 62
     0
100
AcDbTrace
 10
-384.1894064421524
 20
149.5514875786854
 30
0.0
 11
-381.5858648974566
 21
147.4699779015151
 31
0.0
 12
-389.1321647013155
 22
140.7001081060127
 32
0.0
 13
-389.1321647013155
 23
140.7001081060127
 33
0.0
  0
MTEXT
  5
DBB
330
A25
100
AcDbEntity
  8
Dimensions
 62
     0
100
AcDbMText
 10
-348.6895929735813
 20
191.2854677718093
 30
0.0
 40
10.0
 41
0.0
 71
     5
 72
     1
  1
130
 11
0.6244529031511041
 21
0.7810624634087582
 31
0.0
 73
     1
 44
1.0
  0
POINT
  5
DBC
330
A25
100
AcDbEntity
  8
Defpoints
 62
     0
100
AcDbPoint
 10
-308.2470212458471
 20
241.870827437606
 30
0.0
  0
POINT
  5
DBD
330
A25
100
AcDbEntity
  8
Defpoints
 62
     0
100
AcDbPoint
 10
-389.1321647013155
 20
140.7001081060127
 30
0.0
  0
POINT
  5
DBE
330
A25
100
AcDbEntity
  8
Defpoints
 62
     0
100
AcDbPoint
 10
-389.1321647013155
 20
140.7001081060127
 30
0.0
  0
ENDBLK
  5
A31
330
A25
100
AcDbEntity
  8
0
100
AcDbBlockEnd
  0
BLOCK
  5
A4A
330
A3F
100
AcDbEntity
  8
0
100
AcDbBlockBegin
  2
*D16
 70
     1
 10
0.0
 20
0.0
 30
0.0
  3
*D16
  1

  0
LINE
  5
DBF
330
A3F
100
AcDbEntity
  8
Dimensions
 62
     0
370
    -2
100
AcDbLine
 10
-250.8701012639356
 20
196.914471218932
 30
0.0
 11
-249.3094390126679
 21
195.6637380989309
 31
0.0
  0
LINE
  5
DC0
330
A3F
100
AcDbEntity
  8
Dimensions
 62
     0
370
    -2
100
AcDbLine
 10
-325.6059883864669
 20
87.66856123054521
 30
0.0
 11
-327.1666506377346
 21
88.91929435054635
 31
0.0
  0
LINE
  5
DC1
330
A3F
100
AcDbEntity
  8
Dimensions
 62
     0
370
    -2
100
AcDbLine
 10
-253.2221112357722
 20
185.9843271625904
 30
0.0
 11
-277.8152688251915
 21
155.2970349853032
 31
0.0
  0
LINE
  5
DC2
330
A3F
100
AcDbEntity
  8
Dimensions
 62
     0
370
    -2
100
AcDbLine
 10
-323.2539784146304
 20
98.59870528688688
 30
0.0
 11
-298.6608208252111
 21
129.2859974641739
 31
0.0
  0
SOLID
  5
DC3
330
A3F
100
AcDbEntity
  8
Dimensions
 62
     0
100
AcDbTrace
 10
-254.5226631118286
 20
187.0266047625914
 30
0.0
 11
-251.9215593597157
 21
184.9420495625894
 31
0.0
 12
-246.9684456357663
 22
193.7876384189291
 32
0.0
 13
-246.9684456357663
 23
193.7876384189291
 33
0.0
  0
SOLID
  5
DC4
330
A3F
100
AcDbEntity
  8
Dimensions
 62
     0
100
AcDbTrace
 10
-324.5545302906869
 20
99.64098288688788
 30
0.0
 11
-321.9534265385739
 21
97.5564276868859
 31
0.0
 12
-329.5076440146363
 22
90.79539403054809
 32
0.0
 13
-329.5076440146363
 23
90.79539403054809
 33
0.0
  0
MTEXT
  5
DC5
330
A3F
100
AcDbEntity
  8
Dimensions
 62
     0
100
AcDbMText
 10
-288.2380448252013
 20
142.2915162247385
 30
0.0
 40
10.0
 41
0.0
 71
     5
 72
     1
  1
132
 11
0.6253665600005857
 21
0.7803311256338772
 31
0.0
 73
     1
 44
1.0
  0
POINT
  5
DC6
330
A3F
100
AcDbEntity
  8
Defpoints
 62
     0
100
AcDbPoint
 10
-246.9684456357663
 20
193.7876384189291
 30
0.0
  0
POINT
  5
DC7
330
A3F
100
AcDbEntity
  8
Defpoints
 62
     0
100
AcDbPoint
 10
-329.5076440146363
 20
90.79539403054814
 30
0.0
  0
POINT
  5
DC8
330
A3F
100
AcDbEntity
  8
Defpoints
 62
     0
100
AcDbPoint
 10
-329.5076440146363
 20
90.79539403054809
 30
0.0
  0
ENDBLK
  5
A4B
330
A3F
100
AcDbEntity
  8
0
100
AcDbBlockEnd
  0
BLOCK
  5
A64
330
A59
100
AcDbEntity
  8
0
100
AcDbBlockBegin
  2
*D17
 70
     1
 10
0.0
 20
0.0
 30
0.0
  3
*D17
  1

  0
LINE
  5
DC9
330
A59
100
AcDbEntity
  8
Dimensions
 62
     0
370
    -2
100
AcDbLine
 10
-188.8358759301745
 20
148.2667093971694
 30
0.0
 11
-187.2808106571081
 21
147.0090242233271
 31
0.0
  0
LINE
  5
DCA
330
A59
100
AcDbEntity
  8
Dimensions
 62
     0
370
    -2
100
AcDbLine
 10
-256.9312329518588
 20
48.16795051868357
 30
0.0
 11
-258.4862982249252
 21
49.42563569252584
 31
0.0
  0
LINE
  5
DCB
330
A59
100
AcDbEntity
  8
Dimensions
 62
     0
370
    -2
100
AcDbLine
 10
-191.2366386167197
 20
137.3471700972313
 30
0.0
 11
-213.4509156371995
 21
109.880319505925
 31
0.0
  0
LINE
  5
DCC
330
A59
100
AcDbEntity
  8
Dimensions
 62
     0
370
    -2
100
AcDbLine
 10
-254.5304702653135
 20
59.08748981862165
 30
0.0
 11
-232.3161932448337
 21
86.55434040992791
 31
0.0
  0
SOLID
  5
DCD
330
A59
100
AcDbEntity
  8
Dimensions
 62
     0
100
AcDbTrace
 10
-192.5325263442751
 20
138.3952410754332
 30
0.0
 11
-189.9407508891643
 21
136.2990991190294
 31
0.0
 12
-184.9482127475083
 22
145.1224964625637
 32
0.0
 13
-184.9482127475083
 23
145.1224964625637
 33
0.0
  0
SOLID
  5
DCE
330
A59
100
AcDbEntity
  8
Dimensions
 62
     0
100
AcDbTrace
 10
-255.826357992869
 20
60.13556079682352
 30
0.0
 11
-253.2345825377582
 21
58.03941884041974
 31
0.0
 12
-260.8188961345249
 22
51.31216345328926
 32
0.0
 13
-260.8188961345249
 23
51.31216345328926
 33
0.0
  0
MTEXT
  5
DCF
330
A59
100
AcDbEntity
  8
Dimensions
 62
     0
100
AcDbMText
 10
-222.8835544410166
 20
98.2173299579265
 30
0.0
 40
10.0
 41
0.0
 71
     5
 72
     1
  1
121
 11
0.6288425869211388
 21
0.7775326365332392
 31
0.0
 73
     1
 44
1.0
  0
POINT
  5
DD0
330
A59
100
AcDbEntity
  8
Defpoints
 62
     0
100
AcDbPoint
 10
-184.9482127475083
 20
145.1224964625637
 30
0.0
  0
POINT
  5
DD1
330
A59
100
AcDbEntity
  8
Defpoints
 62
     0
100
AcDbPoint
 10
-260.818896134525
 20
51.31216345328926
 30
0.0
  0
POINT
  5
DD2
330
A59
100
AcDbEntity
  8
Defpoints
 62
     0
100
AcDbPoint
 10
-260.8188961345249
 20
51.31216345328926
 30
0.0
  0
ENDBLK
  5
A65
330
A59
100
AcDbEntity
  8
0
100
AcDbBlockEnd
  0
BLOCK
  5
A7E
330
A73
100
AcDbEntity
  8
0
100
AcDbBlockBegin
  2
*D18
 70
     1
 10
0.0
 20
0.0
 30
0.0
  3
*D18
  1

  0
LINE
  5
DD3
330
A73
100
AcDbEntity
  8
Dimensions
 62
     0
370
    -2
100
AcDbLine
 10
-119.3874991019217
 20
93.63358238077365
 30
0.0
 11
-120.9520228604885
 21
94.87948181848112
 31
0.0
  0
LINE
  5
DD4
330
A73
100
AcDbEntity
  8
Dimensions
 62
     0
370
    -2
100
AcDbLine
 10
-176.5095571299993
 20
21.90322099012842
 30
0.0
 11
-178.0740808885661
 21
23.14912042783589
 31
0.0
  0
LINE
  5
DD5
330
A73
100
AcDbEntity
  8
Dimensions
 62
     0
370
    -2
100
AcDbLine
 10
-129.5283056868763
 20
88.92571218220817
 30
0.0
 11
-143.5538412609942
 21
71.31330867016538
 31
0.0
  0
LINE
  5
DD6
330
A73
100
AcDbEntity
  8
Dimensions
 62
     0
370
    -2
100
AcDbLine
 10
-174.1913693378788
 20
32.84058837723137
 30
0.0
 11
-160.1658337637609
 21
50.45299188927415
 31
0.0
  0
SOLID
  5
DD7
330
A73
100
AcDbEntity
  8
Dimensions
 62
     0
100
AcDbTrace
 10
-130.832075485682
 20
89.96396171363109
 30
0.0
 11
-128.2245358880706
 21
87.88746265078525
 31
0.0
 12
-123.2988084983388
 22
96.74833097504238
 32
0.0
 13
-123.2988084983388
 23
96.74833097504238
 33
0.0
  0
SOLID
  5
DD8
330
A73
100
AcDbEntity
  8
Dimensions
 62
     0
100
AcDbTrace
 10
-175.4951391366845
 20
33.87883790865429
 30
0.0
 11
-172.8875995390731
 21
31.80233884580845
 31
0.0
 12
-180.4208665264163
 22
25.01796958439715
 32
0.0
 13
-180.4208665264163
 23
25.01796958439715
 33
0.0
  0
MTEXT
  5
DD9
330
A73
100
AcDbEntity
  8
Dimensions
 62
     0
100
AcDbMText
 10
-151.8598375123775
 20
60.88315027971975
 30
0.0
 40
10.0
 41
0.0
 71
     5
 72
     1
  1
92
 11
0.6229497188537533
 21
0.7822618792834212
 31
0.0
 73
     1
 44
1.0
  0
POINT
  5
DDA
330
A73
100
AcDbEntity
  8
Defpoints
 62
     0
100
AcDbPoint
 10
-123.2988084983388
 20
96.74833097504244
 30
0.0
  0
POINT
  5
DDB
330
A73
100
AcDbEntity
  8
Defpoints
 62
     0
100
AcDbPoint
 10
-180.4208665264164
 20
25.01796958439719
 30
0.0
  0
POINT
  5
DDC
330
A73
100
AcDbEntity
  8
Defpoints
 62
     0
100
AcDbPoint
 10
-180.4208665264163
 20
25.01796958439715
 30
0.0
  0
ENDBLK
  5
A7F
330
A73
100
AcDbEntity
  8
0
100
AcDbBlockEnd
  0
BLOCK
  5
A98
330
A8D
100
AcDbEntity
  8
0
100
AcDbBlockBegin
  2
*D19
 70
     1
 10
0.0
 20
0.0
 30
0.0
  3
*D19
  1

  0
LINE
  5
DFB
330
A8D
100
AcDbEntity
  8
Dimensions
 62
     0
370
    -2
100
AcDbLine
 10
-66.36867546662521
 20
51.74162670693116
 30
0.0
 11
-65.54371705938567
 21
51.1108123175063
 31
0.0
  0
LINE
  5
DFC
330
A8D
100
AcDbEntity
  8
Dimensions
 62
     0
370
    -2
100
AcDbLine
 10
-97.38517341764932
 20
11.17926608742371
 30
0.0
 11
-96.56021501040978
 21
10.54845169799885
 31
0.0
  0
LINE
  5
DFD
330
A8D
100
AcDbEntity
  8
Dimensions
 62
     0
370
    -2
100
AcDbLine
 10
-69.2348745382921
 20
41.34478157488046
 30
0.0
 11
-88.10280973391403
 21
16.66991361400404
 31
0.0
  0
LINE
  5
DFE
330
A8D
100
AcDbEntity
  8
Dimensions
 62
     0
370
    -2
100
AcDbLine
 10
-94.17709111161512
 20
8.726167284688521
 30
0.0
 11
-112.6722208797589
 21
-15.46115794282854
 31
0.0
  0
SOLID
  5
DFF
330
A8D
100
AcDbEntity
  8
Dimensions
 62
     0
100
AcDbTrace
 10
-70.55883225984469
 20
42.3571618044973
 30
0.0
 11
-67.91091681673951
 21
40.3324013452636
 31
0.0
 12
-63.16059316059101
 22
49.28852790419597
 32
0.0
 13
-63.16059316059101
 23
49.28852790419597
 33
0.0
  0
SOLID
  5
E00
330
A8D
100
AcDbEntity
  8
Dimensions
 62
     0
100
AcDbTrace
 10
-89.42676745546663
 20
17.68229384362089
 30
0.0
 11
-86.77885201236144
 21
15.65753338438718
 31
0.0
 12
-94.17709111161512
 22
8.726167284688521
 32
0.0
 13
-94.17709111161512
 23
8.726167284688521
 33
0.0
  0
MTEXT
  5
E01
330
A8D
100
AcDbEntity
  8
Dimensions
 62
     0
100
AcDbMText
 10
-119.7588824870768
 20
-24.72886199369665
 30
0.0
 40
10.0
 41
0.0
 71
     5
 72
     1
  1
51
 11
0.6074281377701089
 21
0.7943746329315519
 31
0.0
 73
     1
 44
1.0
  0
POINT
  5
E02
330
A8D
100
AcDbEntity
  8
Defpoints
 62
     0
100
AcDbPoint
 10
-62.39680230196745
 20
48.7044860180806
 30
0.0
  0
POINT
  5
E03
330
A8D
100
AcDbEntity
  8
Defpoints
 62
     0
100
AcDbPoint
 10
-93.41330025299157
 20
8.14212539857317
 30
0.0
  0
POINT
  5
E04
330
A8D
100
AcDbEntity
  8
Defpoints
 62
     0
100
AcDbPoint
 10
-94.17709111161512
 20
8.726167284688521
 30
0.0
  0
ENDBLK
  5
A99
330
A8D
100
AcDbEntity
  8
0
100
AcDbBlockEnd
  0
BLOCK
  5
B0C
330
B01
100
AcDbEntity
  8
0
100
AcDbBlockBegin
  2
*D20
 70
     1
 10
0.0
 20
0.0
 30
0.0
  3
*D20
  1

  0
LINE
  5
CDF
330
B01
100
AcDbEntity
  8
Dimensions
 62
     0
370
    -2
100
AcDbLine
 10
-618.0
 20
481.0
 30
0.0
 11
-648.4231736287815
 21
481.0
 31
0.0
  0
LINE
  5
CE0
330
B01
100
AcDbEntity
  8
Dimensions
 62
     0
370
    -2
100
AcDbLine
 10
-618.0
 20
347.0
 30
0.0
 11
-648.4231736287815
 21
347.0
 31
0.0
  0
LINE
  5
CE1
330
B01
100
AcDbEntity
  8
Dimensions
 62
     0
370
    -2
100
AcDbLine
 10
-645.4231736287815
 20
471.0
 30
0.0
 11
-645.4231736287815
 21
430.6666666666667
 31
0.0
  0
LINE
  5
CE2
330
B01
100
AcDbEntity
  8
Dimensions
 62
     0
370
    -2
100
AcDbLine
 10
-645.4231736287815
 20
357.0
 30
0.0
 11
-645.4231736287815
 21
397.3333333333333
 31
0.0
  0
SOLID
  5
CE3
330
B01
100
AcDbEntity
  8
Dimensions
 62
     0
100
AcDbTrace
 10
-647.0898402954482
 20
471.0
 30
0.0
 11
-643.7565069621149
 21
471.0
 31
0.0
 12
-645.4231736287815
 22
481.0
 32
0.0
 13
-645.4231736287815
 23
481.0
 33
0.0
  0
SOLID
  5
CE4
330
B01
100
AcDbEntity
  8
Dimensions
 62
     0
100
AcDbTrace
 10
-647.0898402954482
 20
357.0
 30
0.0
 11
-643.7565069621149
 21
357.0
 31
0.0
 12
-645.4231736287815
 22
347.0
 32
0.0
 13
-645.4231736287815
 23
347.0
 33
0.0
  0
MTEXT
  5
CE5
330
B01
100
AcDbEntity
  8
Dimensions
 62
     0
100
AcDbMText
 10
-645.4231736287816
 20
413.9999999999999
 30
0.0
 40
10.0
 41
0.0
 71
     5
 72
     1
  1
134
 11
0.0000000000000001
 21
1.0
 31
0.0
 73
     1
 44
1.0
  0
POINT
  5
CE6
330
B01
100
AcDbEntity
  8
Defpoints
 62
     0
100
AcDbPoint
 10
-613.0
 20
481.0
 30
0.0
  0
POINT
  5
CE7
330
B01
100
AcDbEntity
  8
Defpoints
 62
     0
100
AcDbPoint
 10
-613.0
 20
347.0
 30
0.0
  0
POINT
  5
CE8
330
B01
100
AcDbEntity
  8
Defpoints
 62
     0
100
AcDbPoint
 10
-645.4231736287815
 20
347.0
 30
0.0
  0
ENDBLK
  5
B0D
330
B01
100
AcDbEntity
  8
0
100
AcDbBlockEnd
  0
BLOCK
  5
B26
330
B1B
100
AcDbEntity
  8
0
100
AcDbBlockBegin
  2
*D21
 70
     1
 10
0.0
 20
0.0
 30
0.0
  3
*D21
  1

  0
LINE
  5
C6C
330
B1B
100
AcDbEntity
  8
Dimensions
 62
     0
370
    -2
100
AcDbLine
 10
5.0
 20
347.0
 30
0.0
 11
51.25476135887633
 21
347.0
 31
0.0
  0
LINE
  5
C6D
330
B1B
100
AcDbEntity
  8
Dimensions
 62
     0
370
    -2
100
AcDbLine
 10
5.0
 20
-0.0000000000000014
 30
0.0
 11
51.25476135887625
 21
-0.0000000000000145
 31
0.0
  0
LINE
  5
C6E
330
B1B
100
AcDbEntity
  8
Dimensions
 62
     0
370
    -2
100
AcDbLine
 10
48.25476135887633
 20
337.0
 30
0.0
 11
48.2547613588763
 21
191.8333333333333
 31
0.0
  0
LINE
  5
C6F
330
B1B
100
AcDbEntity
  8
Dimensions
 62
     0
370
    -2
100
AcDbLine
 10
48.25476135887625
 20
9.999999999999985
 30
0.0
 11
48.25476135887629
 21
155.1666666666666
 31
0.0
  0
SOLID
  5
C70
330
B1B
100
AcDbEntity
  8
Dimensions
 62
     0
100
AcDbTrace
 10
46.58809469220966
 20
337.0
 30
0.0
 11
49.92142802554299
 21
337.0
 31
0.0
 12
48.25476135887633
 22
347.0
 32
0.0
 13
48.25476135887633
 23
347.0
 33
0.0
  0
SOLID
  5
C71
330
B1B
100
AcDbEntity
  8
Dimensions
 62
     0
100
AcDbTrace
 10
46.58809469220958
 20
9.999999999999985
 30
0.0
 11
49.92142802554291
 21
9.999999999999985
 31
0.0
 12
48.25476135887625
 22
-0.0000000000000137
 32
0.0
 13
48.25476135887625
 23
-0.0000000000000137
 33
0.0
  0
MTEXT
  5
C72
330
B1B
100
AcDbEntity
  8
Dimensions
 62
     0
100
AcDbMText
 10
48.25476135887626
 20
173.5
 30
0.0
 40
10.0
 41
0.0
 71
     5
 72
     1
  1
347
 11
0.0000000000000001
 21
1.0
 31
0.0
 73
     1
 44
1.0
  0
POINT
  5
C73
330
B1B
100
AcDbEntity
  8
Defpoints
 62
     0
100
AcDbPoint
 10
0.0
 20
347.0
 30
0.0
  0
POINT
  5
C74
330
B1B
100
AcDbEntity
  8
Defpoints
 62
     0
100
AcDbPoint
 10
0.0
 20
0.0
 30
0.0
  0
POINT
  5
C75
330
B1B
100
AcDbEntity
  8
Defpoints
 62
     0
100
AcDbPoint
 10
48.25476135887625
 20
-0.0000000000000137
 30
0.0
  0
ENDBLK
  5
B27
330
B1B
100
AcDbEntity
  8
0
100
AcDbBlockEnd
  0
BLOCK
  5
C27
330
C1C
100
AcDbEntity
  8
0
100
AcDbBlockBegin
  2
*D22
 70
     1
 10
0.0
 20
0.0
 30
0.0
  3
*D22
  1

  0
LINE
  5
CCB
330
C1C
100
AcDbEntity
  8
Dimensions
 62
     0
370
    -2
100
AcDbLine
 10
-613.0
 20
486.0
 30
0.0
 11
-613.0
 21
538.7656450316722
 31
0.0
  0
LINE
  5
CCC
330
C1C
100
AcDbEntity
  8
Dimensions
 62
     0
370
    -2
100
AcDbLine
 10
0.0000000000000003
 20
495.0
 30
0.0
 11
0.000000000000003
 21
538.7656450316722
 31
0.0
  0
LINE
  5
CCD
330
C1C
100
AcDbEntity
  8
Dimensions
 62
     0
370
    -2
100
AcDbLine
 10
-603.0
 20
535.7656450316722
 30
0.0
 11
-323.1666666666666
 21
535.7656450316722
 31
0.0
  0
LINE
  5
CCE
330
C1C
100
AcDbEntity
  8
Dimensions
 62
     0
370
    -2
100
AcDbLine
 10
-9.999999999999996
 20
535.7656450316722
 30
0.0
 11
-289.8333333333333
 21
535.7656450316722
 31
0.0
  0
SOLID
  5
CCF
330
C1C
100
AcDbEntity
  8
Dimensions
 62
     0
100
AcDbTrace
 10
-603.0
 20
537.4323116983388
 30
0.0
 11
-603.0
 21
534.0989783650055
 31
0.0
 12
-613.0
 22
535.7656450316722
 32
0.0
 13
-613.0
 23
535.7656450316722
 33
0.0
  0
SOLID
  5
CD0
330
C1C
100
AcDbEntity
  8
Dimensions
 62
     0
100
AcDbTrace
 10
-9.999999999999996
 20
537.4323116983388
 30
0.0
 11
-9.999999999999996
 21
534.0989783650055
 31
0.0
 12
0.0000000000000028
 22
535.7656450316722
 32
0.0
 13
0.0000000000000028
 23
535.7656450316722
 33
0.0
  0
MTEXT
  5
CD1
330
C1C
100
AcDbEntity
  8
Dimensions
 62
     0
100
AcDbMText
 10
-306.4999999999999
 20
535.7656450316722
 30
0.0
 40
10.0
 41
0.0
 71
     5
 72
     1
  1
613
 73
     1
 44
1.0
  0
POINT
  5
CD2
330
C1C
100
AcDbEntity
  8
Defpoints
 62
     0
100
AcDbPoint
 10
-613.0
 20
481.0
 30
0.0
  0
POINT
  5
CD3
330
C1C
100
AcDbEntity
  8
Defpoints
 62
     0
100
AcDbPoint
 10
0.0
 20
490.0
 30
0.0
  0
POINT
  5
CD4
330
C1C
100
AcDbEntity
  8
Defpoints
 62
     0
100
AcDbPoint
 10
0.0000000000000028
 20
535.7656450316722
 30
0.0
  0
ENDBLK
  5
C28
330
C1C
100
AcDbEntity
  8
0
100
AcDbBlockEnd
  0
BLOCK
  5
C49
330
C3E
100
AcDbEntity
  8
0
100
AcDbBlockBegin
  2
*D23
 70
     1
 10
0.0
 20
0.0
 30
0.0
  3
*D23
  1

  0
LINE
  5
C58
330
C3E
100
AcDbEntity
  8
Dimensions
 62
     0
370
    -2
100
AcDbLine
 10
5.0
 20
490.0
 30
0.0
 11
51.25476135887636
 21
490.0
 31
0.0
  0
LINE
  5
C59
330
C3E
100
AcDbEntity
  8
Dimensions
 62
     0
370
    -2
100
AcDbLine
 10
5.0
 20
347.0
 30
0.0
 11
51.25476135887633
 21
347.0
 31
0.0
  0
LINE
  5
C5A
330
C3E
100
AcDbEntity
  8
Dimensions
 62
     0
370
    -2
100
AcDbLine
 10
48.25476135887636
 20
480.0
 30
0.0
 11
48.25476135887635
 21
435.1666666666666
 31
0.0
  0
LINE
  5
C5B
330
C3E
100
AcDbEntity
  8
Dimensions
 62
     0
370
    -2
100
AcDbLine
 10
48.25476135887633
 20
357.0
 30
0.0
 11
48.25476135887634
 21
401.8333333333333
 31
0.0
  0
SOLID
  5
C5C
330
C3E
100
AcDbEntity
  8
Dimensions
 62
     0
100
AcDbTrace
 10
46.58809469220969
 20
480.0
 30
0.0
 11
49.92142802554302
 21
480.0
 31
0.0
 12
48.25476135887636
 22
490.0
 32
0.0
 13
48.25476135887636
 23
490.0
 33
0.0
  0
SOLID
  5
C5D
330
C3E
100
AcDbEntity
  8
Dimensions
 62
     0
100
AcDbTrace
 10
46.58809469220966
 20
357.0
 30
0.0
 11
49.92142802554299
 21
357.0
 31
0.0
 12
48.25476135887633
 22
347.0
 32
0.0
 13
48.25476135887633
 23
347.0
 33
0.0
  0
MTEXT
  5
C5E
330
C3E
100
AcDbEntity
  8
Dimensions
 62
     0
100
AcDbMText
 10
48.25476135887628
 20
418.5
 30
0.0
 40
10.0
 41
0.0
 71
     5
 72
     1
  1
143
 11
0.0000000000000001
 21
1.0
 31
0.0
 73
     1
 44
1.0
  0
POINT
  5
C5F
330
C3E
100
AcDbEntity
  8
Defpoints
 62
     0
100
AcDbPoint
 10
0.0
 20
490.0
 30
0.0
  0
POINT
  5
C60
330
C3E
100
AcDbEntity
  8
Defpoints
 62
     0
100
AcDbPoint
 10
0.0
 20
347.0
 30
0.0
  0
POINT
  5
C61
330
C3E
100
AcDbEntity
  8
Defpoints
 62
     0
100
AcDbPoint
 10
48.25476135887633
 20
347.0
 30
0.0
  0
ENDBLK
  5
C4A
330
C3E
100
AcDbEntity
  8
0
100
AcDbBlockEnd
  0
BLOCK
  5
E27
330
E1C
100
AcDbEntity
  8
0
100
AcDbBlockBegin
  2
*D25
 70
     1
 10
0.0
 20
0.0
 30
0.0
  3
*D25
  1

  0
LINE
  5
E35
330
E1C
100
AcDbEntity
  8
Dimensions
  6
ACAD_ISO02W100
 62
     0
370
    -2
100
AcDbLine
 10
-609.9134434791462
 20
484.9335949007969
 30
0.0
 11
-586.9934321959849
 21
514.1435053302728
 31
0.0
  0
LINE
  5
E36
330
E1C
100
AcDbEntity
  8
Dimensions
  6
ACAD_ISO02W100
 62
     0
370
    -2
100
AcDbLine
 10
3.086556520825164
 20
3.933594900819369
 30
0.0
 11
26.0065678039864
 21
33.1435053302951
 31
0.0
  0
LINE
  5
E37
330
E1C
100
AcDbEntity
  8
Dimensions
  6
ACAD_ISO02W100
 62
     0
370
    -2
100
AcDbLine
 10
-580.9781763069032
 20
505.6102353480873
 30
0.0
 11
-302.0133406124961
 21
286.7161309940743
 31
0.0
  0
LINE
  5
E38
330
E1C
100
AcDbEntity
  8
Dimensions
  6
ACAD_ISO02W100
 62
     0
370
    -2
100
AcDbLine
 10
16.28744408988035
 20
36.95646143152435
 30
0.0
 11
-262.6773916045269
 21
255.8505657855373
 31
0.0
  0
SOLID
  5
E39
330
E1C
100
AcDbEntity
  8
Dimensions
  6
ACAD_ISO02W100
 62
     0
100
AcDbTrace
 10
-579.9493241332853
 20
506.9214336483529
 30
0.0
 11
-582.0070284805211
 21
504.2990370478216
 31
0.0
 12
-588.8453661084971
 22
511.7833483897946
 32
0.0
 13
-588.8453661084971
 23
511.7833483897946
 33
0.0
  0
SOLID
  5
E3A
330
E1C
100
AcDbEntity
  8
Dimensions
  6
ACAD_ISO02W100
 62
     0
100
AcDbTrace
 10
17.31629626349825
 20
38.26765973179
 30
0.0
 11
15.25859191626245
 21
35.64526313125872
 31
0.0
 12
24.15463389147418
 22
30.78334838981696
 32
0.0
 13
24.15463389147418
 23
30.78334838981696
 33
0.0
  0
MTEXT
  5
E3B
330
E1C
100
AcDbEntity
  8
Dimensions
  6
ACAD_ISO02W100
 62
     0
100
AcDbMText
 10
-282.3453661085114
 20
271.2833483898058
 30
0.0
 40
10.0
 41
0.0
 71
     5
 72
     1
  1
(779)
 11
0.7867189801593833
 21
-0.61731130417074
 31
0.0
 73
     1
 44
1.0
  0
POINT
  5
E3C
330
E1C
100
AcDbEntity
  8
Defpoints
  6
ACAD_ISO02W100
 62
     0
100
AcDbPoint
 10
-613.0
 20
481.0
 30
0.0
  0
POINT
  5
E3D
330
E1C
100
AcDbEntity
  8
Defpoints
  6
ACAD_ISO02W100
 62
     0
100
AcDbPoint
 10
-0.0000000000285354
 20
0.0000000000224532
 30
0.0
  0
POINT
  5
E3E
330
E1C
100
AcDbEntity
  8
Defpoints
  6
ACAD_ISO02W100
 62
     0
100
AcDbPoint
 10
24.15463389147418
 20
30.78334838981696
 30
0.0
  0
ENDBLK
  5
E28
330
E1C
100
AcDbEntity
  8
0
100
AcDbBlockEnd
  0
ENDSEC
  0
SECTION
  2
ENTITIES
  0
LINE
  5
98E
102
{ACAD_REACTORS
330
B33
330
C56
102
}
330
1F
100
AcDbEntity
  8
Deck profile
100
AcDbLine
 10
0.0
 20
0.0
 30
0.0
 11
0.0
 21
347.0
 31
0.0
  0
LINE
  5
98F
102
{ACAD_REACTORS
330
C34
330
C3C
330
C56
102
}
330
1F
100
AcDbEntity
  8
Deck profile
100
AcDbLine
 10
0.0
 20
347.0
 30
0.0
 11
0.0
 21
490.0
 31
0.0
  0
LINE
  5
991
102
{ACAD_REACTORS
330
B33
330
E34
102
}
330
1F
100
AcDbEntity
  8
Deck profile
  6
ACAD_ISO02W100
100
AcDbLine
 10
-613.0
 20
481.0
 30
0.0
 11
0.0
 21
0.0
 31
0.0
  0
LINE
  5
9BB
102
{ACAD_REACTORS
330
B19
102
}
330
1F
100
AcDbEntity
  8
Deck profile
100
AcDbLine
 10
-613.0
 20
347.0
 30
0.0
 11
0.0
 21
347.0
 31
0.0
  0
DIMENSION
  5
9BC
330
1F
100
AcDbEntity
  8
Dimensions
100
AcDbDimension
  2
*D11
 10
-443.7368547698627
 20
199.268375920122
 30
0.0
 11
-406.8166401324396
 21
244.7566844226245
 31
0.0
 70
    33
 71
     5
 42
117.1714719424868
  3
Copy of ISO-25
100
AcDbAlignedDimension
 13
-369.8964254950165
 23
290.2449929251271
 33
0.0
 14
-443.7368547698629
 24
199.268375920122
 34
0.0
  0
DIMENSION
  5
9D6
330
1F
100
AcDbEntity
  8
Dimensions
100
AcDbDimension
  2
*D12
 10
-579.4994442687838
 20
406.8585120295244
 30
0.0
 11
-606.0881445064227
 21
374.4682129625851
 31
0.0
 70
   161
 71
     5
 42
37.65737825113075
  3
Copy of ISO-25
100
AcDbAlignedDimension
 13
-555.6062756830206
 23
435.9651200710161
 33
0.0
 14
-579.4994442687839
 24
406.8585120295244
 34
0.0
  0
DIMENSION
  5
9F0
330
1F
100
AcDbEntity
  8
Dimensions
100
AcDbDimension
  2
*D13
 10
-537.7285367349751
 20
332.9470915595432
 30
0.0
 11
-515.8327140032538
 21
360.2611841987008
 31
0.0
 70
    33
 71
     5
 42
70.01390461328219
  3
Copy of ISO-25
100
AcDbAlignedDimension
 13
-493.9368912715324
 23
387.5752768378582
 33
0.0
 14
-537.728536734975
 24
332.9470915595432
 34
0.0
  0
DIMENSION
  5
A0A
330
1F
100
AcDbEntity
  8
Dimensions
100
AcDbDimension
  2
*D14
 10
-491.6278558671859
 20
264.9900183441262
 30
0.0
 11
-461.5868428056857
 21
301.8045883783871
 31
0.0
 70
    33
 71
     5
 42
95.03210052542726
  3
Copy of ISO-25
100
AcDbAlignedDimension
 13
-431.5458297441859
 23
338.6191584126483
 33
0.0
 14
-491.627855867186
 24
264.9900183441264
 34
0.0
  0
DIMENSION
  5
A24
330
1F
100
AcDbEntity
  8
Dimensions
100
AcDbDimension
  2
*D15
 10
-389.1321647013155
 20
140.7001081060127
 30
0.0
 11
-348.6895929735813
 21
191.2854677718093
 31
0.0
 70
    33
 71
     5
 42
129.5296139185311
  3
Copy of ISO-25
100
AcDbAlignedDimension
 13
-308.2470212458471
 23
241.870827437606
 33
0.0
 14
-389.1321647013155
 24
140.7001081060127
 34
0.0
  0
DIMENSION
  5
A3E
330
1F
100
AcDbEntity
  8
Dimensions
100
AcDbDimension
  2
*D16
 10
-329.5076440146363
 20
90.79539403054809
 30
0.0
 11
-288.2380448252013
 21
142.2915162247385
 31
0.0
 70
    33
 71
     5
 42
131.9853085505445
  3
Copy of ISO-25
100
AcDbAlignedDimension
 13
-246.9684456357662
 23
193.7876384189291
 33
0.0
 14
-329.5076440146363
 24
90.79539403054809
 34
0.0
  0
DIMENSION
  5
A58
330
1F
100
AcDbEntity
  8
Dimensions
100
AcDbDimension
  2
*D17
 10
-260.8188961345249
 20
51.31216345328926
 30
0.0
 11
-222.8835544410166
 21
98.2173299579265
 31
0.0
 70
    33
 71
     5
 42
120.6513123713284
  3
Copy of ISO-25
100
AcDbAlignedDimension
 13
-184.9482127475083
 23
145.1224964625636
 33
0.0
 14
-260.8188961345249
 24
51.31216345328926
 34
0.0
  0
DIMENSION
  5
A72
330
1F
100
AcDbEntity
  8
Dimensions
100
AcDbDimension
  2
*D18
 10
-180.4208665264163
 20
25.01796958439715
 30
0.0
 11
-151.8598375123775
 21
60.88315027971975
 31
0.0
 70
    33
 71
     5
 42
91.69609729206376
  3
Copy of ISO-25
100
AcDbAlignedDimension
 13
-123.2988084983388
 23
96.7483309750424
 33
0.0
 14
-180.4208665264163
 24
25.01796958439717
 34
0.0
  0
DIMENSION
  5
A8C
330
1F
100
AcDbEntity
  8
Dimensions
100
AcDbDimension
  2
*D19
 10
-94.17709111161512
 20
8.726167284688521
 30
0.0
 11
-119.7588824870768
 21
-24.72886199369665
 31
0.0
 70
   161
 71
     5
 42
51.06200391849943
  3
Copy of ISO-25
100
AcDbAlignedDimension
 13
-62.39680230196746
 23
48.70448601808061
 33
0.0
 14
-93.41330025299157
 24
8.14212539857317
 34
0.0
  0
DIMENSION
  5
B00
102
{ACAD_XDICTIONARY
360
B0E
102
}
102
{ACAD_REACTORS
330
B19
102
}
330
1F
100
AcDbEntity
  8
Dimensions
100
AcDbDimension
  2
*D20
 10
-645.4231736287815
 20
347.0
 30
0.0
 11
-645.4231736287816
 21
413.9999999999999
 31
0.0
 70
    32
 71
     5
 42
134.0
  3
Copy of ISO-25
100
AcDbAlignedDimension
 13
-613.0
 23
481.0
 33
0.0
 14
-613.0
 24
347.0
 34
0.0
 50
90.0
100
AcDbRotatedDimension
  0
DIMENSION
  5
B1A
102
{ACAD_XDICTIONARY
360
B28
102
}
102
{ACAD_REACTORS
330
B33
102
}
330
1F
100
AcDbEntity
  8
Dimensions
100
AcDbDimension
  2
*D21
 10
48.25476135887625
 20
-0.0000000000000137
 30
0.0
 11
48.25476135887626
 21
173.5
 31
0.0
 70
    32
 71
     5
 42
347.0
  3
Copy of ISO-25
100
AcDbAlignedDimension
 13
0.0
 23
347.0
 33
0.0
 14
0.0
 24
0.0
 34
0.0
 50
90.0
100
AcDbRotatedDimension
  0
MTEXT
  5
B34
330
1F
100
AcDbEntity
  8
Dimensions
100
AcDbMText
 10
-353.7862990591902
 20
362.7695565916993
 30
0.0
 40
8.0
 41
360.8074182100961
 71
     1
 72
     5
  1
{\fTimes New Roman|b0|i0|c0|p18;Datum Line}
 73
     1
 44
1.0
  0
LEADER
  5
BFD
330
1F
100
AcDbEntity
  8
Deck profile
100
AcDbLeader
  3
Copy of ISO-25
 73
     0
 40
10.65609228550829
 41
55.44340302811824
 76
     3
 10
-506.5567715041999
 20
255.2097412784422
 30
0.0
 10
-553.8875138194416
 20
228.346921060032
 30
0.0
 10
-569.0998854808017
 20
228.346921060032
 30
0.0
340
BFE
213
0.0
223
5.0
233
0.0
1001
ACAD
1000
DSTYLE
1002
{
1070
   147
1040
5.0
1070
    77
1070
     0
1002
}
  0
MTEXT
  5
BFE
102
{ACAD_REACTORS
330
BFD
102
}
330
1F
100
AcDbEntity
  8
Deck profile
100
AcDbMText
 10
-574.0998854808017
 20
223.346921060032
 30
0.0
 40
10.0
 41
0.0
 71
     9
 72
     1
  1
{\fTimes New Roman|b0|i0|c0|p18;Plus 20%}
 73
     1
 44
1.0
  0
LEADER
  5
BFF
330
1F
100
AcDbEntity
  8
Deck profile
100
AcDbLeader
  3
Copy of ISO-25
 73
     0
 40
10.65609228550829
 41
67.74333093006489
 76
     3
 10
-402.582586568572
 20
189.0956224657375
 30
0.0
 10
-500.059115115886
 20
155.8755870409619
 30
0.0
 10
-508.2503932402865
 20
155.8755870409619
 30
0.0
340
C00
213
0.0
223
5.0
233
0.0
1001
ACAD
1000
DSTYLE
1002
{
1070
   147
1040
5.0
1070
    77
1070
     0
1002
}
  0
MTEXT
  5
C00
102
{ACAD_REACTORS
330
BFF
102
}
330
1F
100
AcDbEntity
  8
Deck profile
100
AcDbMText
 10
-513.2503932402864
 20
150.8755870409619
 30
0.0
 40
10.0
 41
0.0
 71
     9
 72
     1
  1
{\fTimes New Roman|b0|i0|c0|p18;Minus 20%}
 73
     1
 44
1.0
  0
DIMENSION
  5
C1B
102
{ACAD_XDICTIONARY
360
C29
102
}
102
{ACAD_REACTORS
330
C34
102
}
330
1F
100
AcDbEntity
  8
Dimensions
100
AcDbDimension
  2
*D22
 10
0.0000000000000028
 20
535.7656450316722
 30
0.0
 11
-306.4999999999999
 21
535.7656450316722
 31
0.0
 70
    32
 71
     5
 42
613.0
  3
Copy of ISO-25
100
AcDbAlignedDimension
 13
-613.0
 23
481.0
 33
0.0
 14
0.0
 24
490.0
 34
0.0
100
AcDbRotatedDimension
  0
CIRCLE
  5
C36
330
1F
100
AcDbEntity
  8
Deck profile
100
AcDbCircle
 10
0.0
 20
490.0
 30
0.0
 40
10.0
  0
CIRCLE
  5
C37
330
1F
100
AcDbEntity
  8
Deck profile
100
AcDbCircle
 10
-0.0000000000000291
 20
-0.0000000000000058
 30
0.0
 40
10.0
  0
CIRCLE
  5
C38
330
1F
100
AcDbEntity
  8
Deck profile
100
AcDbCircle
 10
-613.0000000002268
 20
481.0000000006079
 30
0.0
 40
10.0
  0
LEADER
  5
C39
102
{ACAD_XDICTIONARY
360
C3B
102
}
102
{ACAD_REACTORS
330
C3C
102
}
330
1F
100
AcDbEntity
  8
Deck profile
100
AcDbLeader
  3
Copy of ISO-25
 73
     0
 40
27.37322758952175
 41
149.1204037490987
 76
     3
 10
0.0
 20
490.0
 30
0.0
 10
-75.80852242931496
 20
447.4120375150995
 30
0.0
 10
-84.25491635367917
 20
447.4120375150995
 30
0.0
340
C3A
213
0.0
223
5.0
233
0.0
1001
ACAD
1000
DSTYLE
1002
{
1070
   147
1040
5.0
1070
    77
1070
     0
1002
}
  0
MTEXT
  5
C3A
102
{ACAD_REACTORS
330
C39
102
}
330
1F
100
AcDbEntity
  8
Deck profile
100
AcDbMText
 10
-89.25491635367917
 20
442.4120375150995
 30
0.0
 40
10.0
 41
0.0
 71
     9
 72
     1
  1
{\fTimes New Roman|b0|i0|c0|p18;3 circled points are fixed,\Pno tolerance}
 73
     1
 44
1.0
  0
DIMENSION
  5
C3D
102
{ACAD_XDICTIONARY
360
C4B
102
}
102
{ACAD_REACTORS
330
C56
102
}
330
1F
100
AcDbEntity
  8
Dimensions
100
AcDbDimension
  2
*D23
 10
48.25476135887633
 20
347.0
 30
0.0
 11
48.25476135887628
 21
418.5
 31
0.0
 70
    32
 71
     5
 42
143.0
  3
Copy of ISO-25
100
AcDbAlignedDimension
 13
0.0
 23
490.0
 33
0.0
 14
0.0
 24
347.0
 34
0.0
 50
90.0
100
AcDbRotatedDimension
  0
MTEXT
  5
CA0
330
1F
100
AcDbEntity
  8
Deck profile
100
AcDbMText
 10
-605.4202927514284
 20
70.42079181297004
 30
0.0
 40
20.0
 41
289.7112850290832
 71
     1
 72
     5
  1
{\fTimes New Roman|b0|i0|c0|p18;Bow Profile.\P\H0.75x;The 20% tolerance shown.}
 73
     1
 44
1.0
  0
LEADER
  5
CA1
330
1F
100
AcDbEntity
  8
Deck profile
100
AcDbLeader
  3
Copy of ISO-25
 73
     0
 40
47.27709685171833
 41
140.0072098053352
 76
     3
 10
-270.3651725392264
 20
211.9508680263066
 30
0.0
 10
-221.4223198758854
 20
259.0433975053283
 30
0.0
 10
-209.0341917171672
 20
259.4711982359331
 30
0.0
340
CA2
213
0.0
223
-5.0
233
0.0
1001
ACAD
1000
DSTYLE
1002
{
1070
   147
1040
5.0
1070
    77
1070
     0
1002
}
  0
MTEXT
  5
CA2
102
{ACAD_REACTORS
330
CA1
102
}
330
1F
100
AcDbEntity
  8
Deck profile
100
AcDbMText
 10
-204.0341917171672
 20
264.4711982359331
 30
0.0
 40
10.0
 41
0.0
 71
     1
 72
     1
  1
{\fTimes New Roman|b0|i0|c0|p18;9 dimesions spaced\Pequal distance, \P90° to the diagonal line.}
 73
     1
 44
1.0
  0
LINE
  5
CCA
330
1F
100
AcDbEntity
  8
Deck profile
  6
HIDDEN2
100
AcDbLine
 10
-613.0
 20
481.0
 30
0.0
 11
0.0
 21
490.0
 31
0.0
  0
SPLINE
  5
CFE
330
1F
100
AcDbEntity
  8
0
100
AcDbSpline
210
0.0
220
0.0
230
1.0
 70
     8
 71
     3
 72
    18
 73
    14
 74
     0
 42
0.0000000001
 43
0.0000000001
 40
0.0
 40
0.0
 40
0.0
 40
0.0
 40
81.95215824267426
 40
166.3525517460007
 40
248.5035564651979
 40
329.8179834249217
 40
409.2521158745561
 40
487.7400707967894
 40
567.0859531179991
 40
650.9981678057905
 40
739.2572339909766
 40
833.8198451207697
 40
843.8298535259022
 40
843.8298535259022
 40
843.8298535259022
 40
843.8298535259022
 10
-613.0
 20
481.0
 30
0.0
 10
-602.2517744535662
 20
455.8678412713355
 30
0.0
 10
-580.4342313316847
 20
404.8527267819917
 30
0.0
 10
-539.0869499416007
 20
332.8246812863182
 30
0.0
 10
-491.6511824175048
 20
265.1793511808
 30
0.0
 10
-445.2846771697724
 20
198.7197865663221
 30
0.0
 10
-391.3576308705156
 20
139.57538887142
 30
0.0
 10
-330.3691253782024
 20
88.92148850152507
 30
0.0
 10
-260.7816294723192
 20
47.06980766907102
 30
0.0
 10
-179.7771325098941
 20
22.86601996463148
 30
0.0
 10
-92.24445114496115
 20
8.590073322299755
 30
0.0
 10
-28.13460033824569
 20
-1.235321863086419
 30
0.0
 10
6.661265006624735
 20
0.2156683025615339
 30
0.0
 10
9.992203505950534
 20
0.3948026034202931
 30
0.0
  0
SPLINE
  5
CFF
102
{ACAD_REACTORS
330
E34
102
}
330
1F
100
AcDbEntity
  8
0
  6
ACAD_ISO02W100
100
AcDbSpline
210
0.0
220
0.0
230
1.0
 70
     8
 71
     3
 72
    18
 73
    14
 74
     0
 42
0.0000000001
 43
0.0000000001
 40
0.0
 40
0.0
 40
0.0
 40
0.0
 40
85.68262069124934
 40
172.6592481715978
 40
256.4250336532102
 40
339.0008470845626
 40
418.8786249914031
 40
497.3741828730615
 40
577.0743997818056
 40
663.2109974292363
 40
755.6275158248438
 40
856.1317419473116
 40
866.1260487893734
 40
866.1260487893734
 40
866.1260487893734
 40
866.1260487893734
 10
-613.0
 20
481.0
 30
0.0
 10
-603.9298525885562
 20
453.8957711270004
 30
0.0
 10
-585.6525774511794
 20
399.2779765062418
 30
0.0
 10
-548.1874232030536
 20
322.1356352094385
 30
0.0
 10
-503.5540437632493
 20
250.4545857141182
 30
0.0
 10
-460.3477369848481
 20
180.567043264312
 30
0.0
 10
-407.9740147652664
 20
119.1291658643437
 30
0.0
 10
-347.0121817867994
 20
67.90026807503872
 30
0.0
 10
-275.3532162764951
 20
27.2382914394987
 30
0.0
 10
-190.4824555161432
 20
8.619808040141327
 30
0.0
 10
-97.9016960383527
 20
-0.8481753013362038
 30
0.0
 10
-30.18627244405704
 20
-0.201020997855797
 30
0.0
 10
6.666689107800802
 20
0.0454524191961047
 30
0.0
 10
9.999776018533015
 20
0.0669296583818966
 30
0.0
  0
SPLINE
  5
D00
102
{ACAD_REACTORS
330
E34
102
}
330
1F
100
AcDbEntity
  8
0
  6
ACAD_ISO02W100
100
AcDbSpline
210
0.0
220
0.0
230
1.0
 70
     8
 71
     3
 72
    18
 73
    14
 74
     0
 42
0.0000000001
 43
0.0000000001
 40
0.0
 40
0.0
 40
0.0
 40
0.0
 40
78.78020685898292
 40
161.0227695572438
 40
241.8365575850029
 40
322.1112553404446
 40
401.1847868963155
 40
479.6671768229498
 40
558.7183849564191
 40
640.7567058396871
 40
725.4502277607668
 40
814.8434902523387
 40
824.8684155667215
 40
824.8684155667215
 40
824.8684155667215
 40
824.8684155667215
 10
-613.0
 20
481.0
 30
0.0
 10
-600.5683190357975
 20
457.855249241788
 30
0.0
 10
-575.1585901340803
 20
410.5485459924497
 30
0.0
 10
-529.9852069368519
 20
343.5993924696558
 30
0.0
 10
-479.7465064078852
 20
279.9253296598029
 30
0.0
 10
-430.2377666963707
 20
216.957218518691
 30
0.0
 10
-374.7691440392634
 20
160.0497106524636
 30
0.0
 10
-313.7146254721266
 20
109.9341166207139
 30
0.0
 10
-246.0252562071807
 20
66.83149395348002
 30
0.0
 10
-168.9620432102769
 20
37.56166153237691
 30
0.0
 10
-86.39948105263414
 20
16.74100238139321
 30
0.0
 10
-26.36536749343513
 20
1.243617665385985
 30
0.0
 10
6.652713355084274
 20
-0.3998123920533547
 30
0.0
 10
9.986861655639884
 20
-0.5124395292219867
 30
0.0
  0
DIMENSION
  5
E1B
102
{ACAD_XDICTIONARY
360
E29
102
}
102
{ACAD_REACTORS
330
E34
102
}
330
1F
100
AcDbEntity
  8
Dimensions
  6
ACAD_ISO02W100
100
AcDbDimension
  2
*D25
 10
24.15463389147418
 20
30.78334838981696
 30
0.0
 11
-282.3453661085114
 21
271.2833483898058
 31
0.0
 70
    33
  1
(779)
 71
     5
 42
779.1854721437915
  3
Copy of ISO-25
100
AcDbAlignedDimension
 13
-613.0
 23
481.0
 33
0.0
 14
-0.0000000000285354
 24
0.0000000000224532
 34
0.0
  0
ENDSEC
  0
SECTION
  2
OBJECTS
  0
DICTIONARY
  5
C
330
0
100
AcDbDictionary
281
     1
  3
ACAD_GROUP
350
D
  3
ACAD_LAYOUT
350
1A
  3
ACAD_MLINESTYLE
350
17
  3
ACAD_PLOTSETTINGS
350
19
  3
ACAD_PLOTSTYLENAME
350
E
  3
AcDbVariableDictionary
350
78
  0
DICTIONARY
  5
B0E
330
B00
100
AcDbDictionary
280
     1
281
     1
  3
ACAD_DIMASSOC
360
B19
  0
DICTIONARY
  5
B28
330
B1A
100
AcDbDictionary
280
     1
281
     1
  3
ACAD_DIMASSOC
360
B33
  0
DICTIONARY
  5
C29
330
C1B
100
AcDbDictionary
280
     1
281
     1
  3
ACAD_DIMASSOC
360
C34
  0
DICTIONARY
  5
C3B
330
C39
100
AcDbDictionary
280
     1
281
     1
  3
ACAD_DIMASSOC
360
C3C
  0
DICTIONARY
  5
C4B
330
C3D
100
AcDbDictionary
280
     1
281
     1
  3
ACAD_DIMASSOC
360
C56
  0
DICTIONARY
  5
E29
330
E1B
100
AcDbDictionary
280
     1
281
     1
  3
ACAD_DIMASSOC
360
E34
  0
DICTIONARY
  5
D
102
{ACAD_REACTORS
330
C
102
}
330
C
100
AcDbDictionary
281
     1
  0
DICTIONARY
  5
1A
102
{ACAD_REACTORS
330
C
102
}
330
C
100
AcDbDictionary
281
     1
  3
Layout1
350
1E
  3
Layout2
350
26
  3
Model
350
22
  0
DICTIONARY
  5
17
102
{ACAD_REACTORS
330
C
102
}
330
C
100
AcDbDictionary
281
     1
  3
Standard
350
18
  0
DICTIONARY
  5
19
102
{ACAD_REACTORS
330
C
102
}
330
C
100
AcDbDictionary
281
     1
  0
ACDBDICTIONARYWDFLT
  5
E
102
{ACAD_REACTORS
330
C
102
}
330
C
100
AcDbDictionary
281
     1
  3
Normal
350
F
100
AcDbDictionaryWithDefault
340
F
  0
DICTIONARY
  5
78
102
{ACAD_REACTORS
330
C
102
}
330
C
100
AcDbDictionary
281
     1
  3
DIMASSOC
350
7A
  3
HIDETEXT
350
79
  0
DIMASSOC
  5
B19
102
{ACAD_REACTORS
330
B0E
102
}
330
B0E
100
AcDbDimAssoc
330
B00
 90
        2
 70
     0
 71
     0
  1
AcDbOsnapPointRef
 72
    13
331
9BB
 73
     2
 91
        0
 40
0.0
 10
-613.0
 20
347.0
 30
0.0
 75
     0
  0
DIMASSOC
  5
B33
102
{ACAD_REACTORS
330
B28
102
}
330
B28
100
AcDbDimAssoc
330
B1A
 90
        3
 70
     0
 71
     0
  1
AcDbOsnapPointRef
 72
     1
331
98E
 73
     2
 91
        0
 40
1.0
 10
0.0
 20
347.0
 30
0.0
 75
     0
  1
AcDbOsnapPointRef
 72
     1
331
991
 73
     2
 91
        0
 40
1.0
 10
0.0
 20
0.0
 30
0.0
 75
     0
  0
DIMASSOC
  5
C34
102
{ACAD_REACTORS
330
C29
102
}
330
C29
100
AcDbDimAssoc
330
C1B
 90
        2
 70
     0
 71
     0
  1
AcDbOsnapPointRef
 72
     1
331
98F
 73
     2
 91
        0
 40
1.0
 10
0.0
 20
490.0
 30
0.0
 75
     0
  0
DIMASSOC
  5
C3C
102
{ACAD_REACTORS
330
C3B
102
}
330
C3B
100
AcDbDimAssoc
330
C39
 90
        1
 70
     0
 71
     0
  1
AcDbOsnapPointRef
 72
     1
331
98F
 73
     2
 91
        0
 40
1.0
 10
0.0
 20
490.0
 30
0.0
 75
     0
  0
DIMASSOC
  5
C56
102
{ACAD_REACTORS
330
C4B
102
}
330
C4B
100
AcDbDimAssoc
330
C3D
 90
        3
 70
     0
 71
     0
  1
AcDbOsnapPointRef
 72
     1
331
98F
 73
     2
 91
        0
 40
1.0
 10
0.0
 20
490.0
 30
0.0
 75
     0
  1
AcDbOsnapPointRef
 72
     1
331
98E
 73
     2
 91
        0
 40
1.0
 10
0.0
 20
347.0
 30
0.0
 75
     0
  0
DIMASSOC
  5
E34
102
{ACAD_REACTORS
330
E29
102
}
330
E29
100
AcDbDimAssoc
330
E1B
 90
        3
 70
     0
 71
     0
  1
AcDbOsnapPointRef
 72
    13
331
D00
 73
     2
 91
        0
 40
0.0
 10
-613.0
 20
481.0
 30
0.0
 75
     0
  1
AcDbOsnapPointRef
 72
     6
331
CFF
 73
     2
 91
        0
 40
856.1317419472832
 10
-0.0000000000286491
 20
0.0000000000224532
 30
0.0
332
991
 74
     2
 92
        0
 75
     0
  0
LAYOUT
  5
1E
102
{ACAD_REACTORS
330
1A
102
}
330
1A
100
AcDbPlotSettings
  1

  2
Canon MP160 Printer
  4

  6

 40
0.0
 41
0.0
 42
0.0
 43
0.0
 44
0.0
 45
0.0
 46
0.0
 47
0.0
 48
0.0
 49
0.0
140
0.0
141
0.0
142
1.0
143
1.0
 70
   688
 72
     0
 73
     0
 74
     5
  7

 75
    16
147
1.0
148
0.0
149
0.0
100
AcDbLayout
  1
Layout1
 70
     1
 71
     1
 10
0.0
 20
0.0
 11
420.0
 21
297.0
 12
0.0
 22
0.0
 32
0.0
 14
1.000000000000000E+20
 24
1.000000000000000E+20
 34
1.000000000000000E+20
 15
-1.000000000000000E+20
 25
-1.000000000000000E+20
 35
-1.000000000000000E+20
146
0.0
 13
0.0
 23
0.0
 33
0.0
 16
1.0
 26
0.0
 36
0.0
 17
0.0
 27
1.0
 37
0.0
 76
     0
330
1B
  0
LAYOUT
  5
26
102
{ACAD_REACTORS
330
1A
102
}
330
1A
100
AcDbPlotSettings
  1

  2
Canon MP160 Printer
  4

  6

 40
0.0
 41
0.0
 42
0.0
 43
0.0
 44
0.0
 45
0.0
 46
0.0
 47
0.0
 48
0.0
 49
0.0
140
0.0
141
0.0
142
1.0
143
1.0
 70
   688
 72
     0
 73
     0
 74
     5
  7

 75
    16
147
1.0
148
0.0
149
0.0
100
AcDbLayout
  1
Layout2
 70
     1
 71
     2
 10
0.0
 20
0.0
 11
12.0
 21
9.0
 12
0.0
 22
0.0
 32
0.0
 14
0.0
 24
0.0
 34
0.0
 15
0.0
 25
0.0
 35
0.0
146
0.0
 13
0.0
 23
0.0
 33
0.0
 16
1.0
 26
0.0
 36
0.0
 17
0.0
 27
1.0
 37
0.0
 76
     0
330
23
  0
LAYOUT
  5
22
102
{ACAD_REACTORS
330
1A
102
}
330
1A
100
AcDbPlotSettings
  1

  2
Canon MP160 Printer
  4
A4
  6

 40
4.180416584014892
 41
5.83141803741455
 42
4.180404663085937
 43
3.757080078125
 44
209.9733276367187
 45
296.9683227539062
 46
0.0
 47
0.0
 48
-754.7434341484899
 49
-140.1950257855799
140
168.3464852474767
141
596.2455367861978
142
1.0
143
3.652752380095904
 70
 11952
 72
     1
 73
     1
 74
     4
  7

 75
     0
147
0.2737661620451109
148
754.7434341484899
149
140.1950257855799
100
AcDbLayout
  1
Model
 70
     1
 71
     0
 10
0.0
 20
0.0
 11
12.0
 21
9.0
 12
0.0
 22
0.0
 32
0.0
 14
0.0
 24
0.0
 34
0.0
 15
0.0
 25
0.0
 35
0.0
146
0.0
 13
0.0
 23
0.0
 33
0.0
 16
1.0
 26
0.0
 36
0.0
 17
0.0
 27
1.0
 37
0.0
 76
     0
330
1F
  0
MLINESTYLE
  5
18
102
{ACAD_REACTORS
330
17
102
}
330
17
100
AcDbMlineStyle
  2
STANDARD
 70
     0
  3

 62
   256
 51
90.0
 52
90.0
 71
     2
 49
0.5
 62
   256
  6
BYLAYER
 49
-0.5
 62
   256
  6
BYLAYER
  0
ACDBPLACEHOLDER
  5
F
102
{ACAD_REACTORS
330
E
102
}
330
E
  0
DICTIONARYVAR
  5
7A
102
{ACAD_REACTORS
330
78
102
}
330
78
100
DictionaryVariables
280
     0
  1
2
  0
DICTIONARYVAR
  5
79
102
{ACAD_REACTORS
330
78
102
}
330
78
100
DictionaryVariables
280
     0
  1
1
  0
ENDSEC
  0
EOF
