  0
SECTION
  2
HEADER
  9
$ACADVER
  1
AC1015
  9
$ACADMAINTVER
 70
    13
  9
$DWGCODEPAGE
  3
ANSI_1252
  9
$INSBASE
 10
0.0
 20
0.0
 30
0.0
  9
$EXTMIN
 10
-369.6314015176822
 20
-44.67687784966687
 30
0.0
  9
$EXTMAX
 10
461.2077697708762
 20
682.3836179422769
 30
0.0
  9
$LIMMIN
 10
0.0
 20
0.0
  9
$LIMMAX
 10
420.0
 20
297.0
  9
$ORTHOMODE
 70
     0
  9
$REGENMODE
 70
     1
  9
$FILLMODE
 70
     1
  9
$QTEXTMODE
 70
     0
  9
$MIRRTEXT
 70
     1
  9
$LTSCALE
 40
1.0
  9
$ATTMODE
 70
     1
  9
$TEXTSIZE
 40
2.5
  9
$TRACEWID
 40
1.0
  9
$TEXTSTYLE
  7
Standard
  9
$CLAYER
  8
0
  9
$CELTYPE
  6
CENTER
  9
$CECOLOR
 62
   256
  9
$CELTSCALE
 40
1.0
  9
$DISPSILH
 70
     0
  9
$DIMSCALE
 40
1.0
  9
$DIMASZ
 40
10.0
  9
$DIMEXO
 40
20.0
  9
$DIMDLI
 40
5.0
  9
$DIMRND
 40
0.0
  9
$DIMDLE
 40
0.0
  9
$DIMEXE
 40
10.0
  9
$DIMTP
 40
0.0
  9
$DIMTM
 40
0.0
  9
$DIMTXT
 40
10.0
  9
$DIMCEN
 40
0.09
  9
$DIMTSZ
 40
0.0
  9
$DIMTOL
 70
     0
  9
$DIMLIM
 70
     0
  9
$DIMTIH
 70
     1
  9
$DIMTOH
 70
     1
  9
$DIMSE1
 70
     0
  9
$DIMSE2
 70
     0
  9
$DIMTAD
 70
     0
  9
$DIMZIN
 70
     0
  9
$DIMBLK
  1

  9
$DIMASO
 70
     1
  9
$DIMSHO
 70
     1
  9
$DIMPOST
  1

  9
$DIMAPOST
  1

  9
$DIMALT
 70
     0
  9
$DIMALTD
 70
     2
  9
$DIMALTF
 40
25.4
  9
$DIMLFAC
 40
1.0
  9
$DIMTOFL
 70
     0
  9
$DIMTVP
 40
0.0
  9
$DIMTIX
 70
     0
  9
$DIMSOXD
 70
     0
  9
$DIMSAH
 70
     0
  9
$DIMBLK1
  1

  9
$DIMBLK2
  1

  9
$DIMSTYLE
  2
Hull templates
  9
$DIMCLRD
 70
     0
  9
$DIMCLRE
 70
     0
  9
$DIMCLRT
 70
     0
  9
$DIMTFAC
 40
1.0
  9
$DIMGAP
 40
5.0
  9
$DIMJUST
 70
     0
  9
$DIMSD1
 70
     0
  9
$DIMSD2
 70
     0
  9
$DIMTOLJ
 70
     1
  9
$DIMTZIN
 70
     0
  9
$DIMALTZ
 70
     0
  9
$DIMALTTZ
 70
     0
  9
$DIMUPT
 70
     0
  9
$DIMDEC
 70
     0
  9
$DIMTDEC
 70
     0
  9
$DIMALTU
 70
     2
  9
$DIMALTTD
 70
     2
  9
$DIMTXSTY
  7
Standard
  9
$DIMAUNIT
 70
     0
  9
$DIMADEC
 70
     0
  9
$DIMALTRND
 40
0.0
  9
$DIMAZIN
 70
     0
  9
$DIMDSEP
 70
    46
  9
$DIMATFIT
 70
     3
  9
$DIMFRAC
 70
     0
  9
$DIMLDRBLK
  1

  9
$DIMLUNIT
 70
     2
  9
$DIMLWD
 70
    -2
  9
$DIMLWE
 70
    -2
  9
$DIMTMOVE
 70
     0
  9
$LUNITS
 70
     2
  9
$LUPREC
 70
     4
  9
$SKETCHINC
 40
1.0
  9
$FILLETRAD
 40
10.0
  9
$AUNITS
 70
     0
  9
$AUPREC
 70
     0
  9
$MENU
  1
.
  9
$ELEVATION
 40
0.0
  9
$PELEVATION
 40
0.0
  9
$THICKNESS
 40
0.0
  9
$LIMCHECK
 70
     0
  9
$CHAMFERA
 40
10.0
  9
$CHAMFERB
 40
10.0
  9
$CHAMFERC
 40
20.0
  9
$CHAMFERD
 40
0.0
  9
$SKPOLY
 70
     0
  9
$TDCREATE
 40
2456225.439501539
  9
$TDUCREATE
 40
2456225.002001539
  9
$TDUPDATE
 40
2456304.524538460
  9
$TDUUPDATE
 40
2456304.087038460
  9
$TDINDWG
 40
0.0998004514
  9
$TDUSRTIMER
 40
0.0998002662
  9
$USRTIMER
 70
     1
  9
$ANGBASE
 50
0.0
  9
$ANGDIR
 70
     0
  9
$PDMODE
 70
     0
  9
$PDSIZE
 40
0.0
  9
$PLINEWID
 40
0.0
  9
$SPLFRAME
 70
     0
  9
$SPLINETYPE
 70
     6
  9
$SPLINESEGS
 70
     8
  9
$HANDSEED
  5
7B7
  9
$SURFTAB1
 70
     6
  9
$SURFTAB2
 70
     6
  9
$SURFTYPE
 70
     6
  9
$SURFU
 70
     6
  9
$SURFV
 70
     6
  9
$UCSBASE
  2

  9
$UCSNAME
  2

  9
$UCSORG
 10
0.0
 20
0.0
 30
0.0
  9
$UCSXDIR
 10
1.0
 20
0.0
 30
0.0
  9
$UCSYDIR
 10
0.0
 20
1.0
 30
0.0
  9
$UCSORTHOREF
  2

  9
$UCSORTHOVIEW
 70
     0
  9
$UCSORGTOP
 10
0.0
 20
0.0
 30
0.0
  9
$UCSORGBOTTOM
 10
0.0
 20
0.0
 30
0.0
  9
$UCSORGLEFT
 10
0.0
 20
0.0
 30
0.0
  9
$UCSORGRIGHT
 10
0.0
 20
0.0
 30
0.0
  9
$UCSORGFRONT
 10
0.0
 20
0.0
 30
0.0
  9
$UCSORGBACK
 10
0.0
 20
0.0
 30
0.0
  9
$PUCSBASE
  2

  9
$PUCSNAME
  2

  9
$PUCSORG
 10
0.0
 20
0.0
 30
0.0
  9
$PUCSXDIR
 10
1.0
 20
0.0
 30
0.0
  9
$PUCSYDIR
 10
0.0
 20
1.0
 30
0.0
  9
$PUCSORTHOREF
  2

  9
$PUCSORTHOVIEW
 70
     0
  9
$PUCSORGTOP
 10
0.0
 20
0.0
 30
0.0
  9
$PUCSORGBOTTOM
 10
0.0
 20
0.0
 30
0.0
  9
$PUCSORGLEFT
 10
0.0
 20
0.0
 30
0.0
  9
$PUCSORGRIGHT
 10
0.0
 20
0.0
 30
0.0
  9
$PUCSORGFRONT
 10
0.0
 20
0.0
 30
0.0
  9
$PUCSORGBACK
 10
0.0
 20
0.0
 30
0.0
  9
$USERI1
 70
     0
  9
$USERI2
 70
     0
  9
$USERI3
 70
     0
  9
$USERI4
 70
     0
  9
$USERI5
 70
     0
  9
$USERR1
 40
0.0
  9
$USERR2
 40
0.0
  9
$USERR3
 40
0.0
  9
$USERR4
 40
0.0
  9
$USERR5
 40
0.0
  9
$WORLDVIEW
 70
     1
  9
$SHADEDGE
 70
     3
  9
$SHADEDIF
 70
    70
  9
$TILEMODE
 70
     1
  9
$MAXACTVP
 70
    64
  9
$PINSBASE
 10
0.0
 20
0.0
 30
0.0
  9
$PLIMCHECK
 70
     0
  9
$PEXTMIN
 10
28.73798246383666
 20
20.1612506389618
 30
0.0
  9
$PEXTMAX
 10
258.6418421745299
 20
181.451255750656
 30
0.0
  9
$PLIMMIN
 10
-3.757080078125
 20
-4.180416584014891
  9
$PLIMMAX
 10
293.2112426757811
 20
205.7929110527037
  9
$UNITMODE
 70
     0
  9
$VISRETAIN
 70
     1
  9
$PLINEGEN
 70
     0
  9
$PSLTSCALE
 70
     1
  9
$TREEDEPTH
 70
  3020
  9
$CMLSTYLE
  2
Standard
  9
$CMLJUST
 70
     0
  9
$CMLSCALE
 40
20.0
  9
$PROXYGRAPHICS
 70
     1
  9
$MEASUREMENT
 70
     1
  9
$CELWEIGHT
370
    -1
  9
$ENDCAPS
280
     0
  9
$JOINSTYLE
280
     0
  9
$LWDISPLAY
290
     0
  9
$INSUNITS
 70
     4
  9
$HYPERLINKBASE
  1

  9
$STYLESHEET
  1

  9
$XEDIT
290
     1
  9
$CEPSNTYPE
380
     0
  9
$PSTYLEMODE
290
     1
  9
$FINGERPRINTGUID
  2
{980D071A-C52A-48F0-B764-44478E7E2F23}
  9
$VERSIONGUID
  2
{DE94BCE3-BAA1-4525-890B-7A0AF1B32E6A}
  9
$EXTNAMES
290
     1
  9
$PSVPSCALE
 40
0.0
  9
$OLESTARTUP
290
     0
  0
ENDSEC
  0
SECTION
  2
CLASSES
  0
CLASS
  1
ACDBDICTIONARYWDFLT
  2
AcDbDictionaryWithDefault
  3
AutoCAD 2000
 90
        0
280
     0
281
     0
  0
CLASS
  1
ACDBPLACEHOLDER
  2
AcDbPlaceHolder
  3
AutoCAD 2000
 90
        0
280
     0
281
     0
  0
CLASS
  1
LAYOUT
  2
AcDbLayout
  3
AutoCAD 2000
 90
        0
280
     0
281
     0
  0
CLASS
  1
DICTIONARYVAR
  2
AcDbDictionaryVar
  3
AutoCAD 2000
 90
        0
280
     0
281
     0
  0
CLASS
  1
DIMASSOC
  2
AcDbDimAssoc
  3
"AcDbDimAssoc|Product Desc:     AcDim ARX App For Dimension|Company:          Autodesk, Inc.|WEB Address:      www.autodesk.com"
 90
        0
280
     0
281
     0
  0
ENDSEC
  0
SECTION
  2
TABLES
  0
TABLE
  2
VPORT
  5
8
330
0
100
AcDbSymbolTable
 70
     7
  0
VPORT
  5
7B6
330
8
100
AcDbSymbolTableRecord
100
AcDbViewportTableRecord
  2
*Active
 70
     0
 10
0.0
 20
0.0
 11
1.0
 21
1.0
 12
175.9050552382188
 22
318.8465937593837
 13
0.0
 23
0.0
 14
10.0
 24
10.0
 15
10.0
 25
10.0
 16
0.0
 26
0.0
 36
1.0
 17
0.0
 27
0.0
 37
0.0
 40
671.8566185808738
 41
2.604938271604938
 42
50.0
 43
0.0
 44
0.0
 50
0.0
 51
0.0
 71
     0
 72
   100
 73
     1
 74
     3
 75
     0
 76
     0
 77
     0
 78
     0
281
     0
 65
     1
110
0.0
120
0.0
130
0.0
111
1.0
121
0.0
131
0.0
112
0.0
122
1.0
132
0.0
 79
     0
146
0.0
  0
ENDTAB
  0
TABLE
  2
LTYPE
  5
5
330
0
100
AcDbSymbolTable
 70
     2
  0
LTYPE
  5
14
330
5
100
AcDbSymbolTableRecord
100
AcDbLinetypeTableRecord
  2
ByBlock
 70
     0
  3

 72
    65
 73
     0
 40
0.0
  0
LTYPE
  5
15
330
5
100
AcDbSymbolTableRecord
100
AcDbLinetypeTableRecord
  2
ByLayer
 70
     0
  3

 72
    65
 73
     0
 40
0.0
  0
LTYPE
  5
16
330
5
100
AcDbSymbolTableRecord
100
AcDbLinetypeTableRecord
  2
Continuous
 70
     0
  3
Solid line
 72
    65
 73
     0
 40
0.0
  0
LTYPE
  5
72C
330
5
100
AcDbSymbolTableRecord
100
AcDbLinetypeTableRecord
  2
CENTER
 70
     0
  3
Center ____ _ ____ _ ____ _ ____ _ ____ _ ____
 72
    65
 73
     4
 40
50.8
 49
31.75
 74
     0
 49
-6.349999999999999
 74
     0
 49
6.349999999999999
 74
     0
 49
-6.349999999999999
 74
     0
  0
ENDTAB
  0
TABLE
  2
LAYER
  5
2
330
0
100
AcDbSymbolTable
 70
     6
  0
LAYER
  5
10
330
2
100
AcDbSymbolTableRecord
100
AcDbLayerTableRecord
  2
0
 70
     0
 62
     7
  6
Continuous
370
    -3
390
F
  0
LAYER
  5
2B
330
2
100
AcDbSymbolTableRecord
100
AcDbLayerTableRecord
  2
CK_LEVEL_1
 70
     0
 62
     7
  6
Continuous
370
    -3
390
F
  0
LAYER
  5
2C
330
2
100
AcDbSymbolTableRecord
100
AcDbLayerTableRecord
  2
CK_LEVEL_2
 70
     0
 62
     7
  6
Continuous
370
    -3
390
F
  0
LAYER
  5
95
330
2
100
AcDbSymbolTableRecord
100
AcDbLayerTableRecord
  2
Dimensions
 70
     0
 62
     7
  6
Continuous
370
    -3
390
F
  0
LAYER
  5
10F
330
2
100
AcDbSymbolTableRecord
100
AcDbLayerTableRecord
  2
Defpoints
 70
     0
 62
     7
  6
Continuous
290
     0
370
    -3
390
F
  0
LAYER
  5
47E
330
2
100
AcDbSymbolTableRecord
100
AcDbLayerTableRecord
  2
Array
 70
     0
 62
     7
  6
Continuous
370
    -3
390
F
  0
ENDTAB
  0
TABLE
  2
STYLE
  5
3
330
0
100
AcDbSymbolTable
 70
     2
  0
STYLE
  5
11
330
3
100
AcDbSymbolTableRecord
100
AcDbTextStyleTableRecord
  2
Standard
 70
     0
 40
0.0
 41
1.0
 50
0.0
 71
     0
 42
2.5
  3
txt
  4

  0
STYLE
  5
72B
330
3
100
AcDbSymbolTableRecord
100
AcDbTextStyleTableRecord
  2

 70
     1
 40
0.0
 41
1.0
 50
0.0
 71
     0
 42
2.5
  3
ltypeshp.shx
  4

  0
ENDTAB
  0
TABLE
  2
VIEW
  5
6
330
0
100
AcDbSymbolTable
 70
     0
  0
ENDTAB
  0
TABLE
  2
UCS
  5
7
330
0
100
AcDbSymbolTable
 70
     0
  0
ENDTAB
  0
TABLE
  2
APPID
  5
9
330
0
100
AcDbSymbolTable
 70
     2
  0
APPID
  5
12
330
9
100
AcDbSymbolTableRecord
100
AcDbRegAppTableRecord
  2
ACAD
 70
     0
  0
APPID
  5
8C
330
9
100
AcDbSymbolTableRecord
100
AcDbRegAppTableRecord
  2
DCO15
 70
     0
  0
ENDTAB
  0
TABLE
  2
DIMSTYLE
  5
A
330
0
100
AcDbSymbolTable
 70
     3
100
AcDbDimStyleTable
 71
     3
340
130
340
2D
340
27
  0
DIMSTYLE
105
27
330
A
100
AcDbSymbolTableRecord
100
AcDbDimStyleTableRecord
  2
ISO-25
 70
     0
 41
2.5
 42
0.625
 43
3.75
 44
1.25
 73
     0
 77
     1
 78
     8
140
2.5
141
2.5
143
0.03937007874016
147
0.625
171
     3
172
     1
271
     2
272
     2
274
     3
278
    44
283
     0
284
     8
340
11
  0
DIMSTYLE
105
2D
330
A
100
AcDbSymbolTableRecord
100
AcDbDimStyleTableRecord
  2
STANDARD
 70
     0
340
11
  0
DIMSTYLE
105
130
102
{ACAD_REACTORS
330
19E
330
1B8
330
1D2
330
1EC
330
206
330
220
330
23A
330
254
330
288
330
2A6
330
2CA
330
450
330
26E
330
5B6
330
64A
330
6BD
330
6E5
330
6FF
102
}
330
A
100
AcDbSymbolTableRecord
100
AcDbDimStyleTableRecord
  2
Hull templates
 70
     0
 41
10.0
 42
20.0
 43
5.0
 44
10.0
140
10.0
147
5.0
271
     0
272
     0
340
11
  0
ENDTAB
  0
TABLE
  2
BLOCK_RECORD
  5
1
330
0
100
AcDbSymbolTable
 70
    20
  0
BLOCK_RECORD
  5
1F
330
1
100
AcDbSymbolTableRecord
100
AcDbBlockTableRecord
  2
*Model_Space
340
22
  0
BLOCK_RECORD
  5
1B
330
1
100
AcDbSymbolTableRecord
100
AcDbBlockTableRecord
  2
*Paper_Space
340
1E
  0
BLOCK_RECORD
  5
23
330
1
100
AcDbSymbolTableRecord
100
AcDbBlockTableRecord
  2
*Paper_Space0
340
26
  0
BLOCK_RECORD
  5
19F
330
1
100
AcDbSymbolTableRecord
100
AcDbBlockTableRecord
  2
*D1
340
0
  0
BLOCK_RECORD
  5
1B9
330
1
100
AcDbSymbolTableRecord
100
AcDbBlockTableRecord
  2
*D2
340
0
  0
BLOCK_RECORD
  5
1D3
330
1
100
AcDbSymbolTableRecord
100
AcDbBlockTableRecord
  2
*D3
340
0
  0
BLOCK_RECORD
  5
1ED
330
1
100
AcDbSymbolTableRecord
100
AcDbBlockTableRecord
  2
*D4
340
0
  0
BLOCK_RECORD
  5
207
330
1
100
AcDbSymbolTableRecord
100
AcDbBlockTableRecord
  2
*D5
340
0
  0
BLOCK_RECORD
  5
221
330
1
100
AcDbSymbolTableRecord
100
AcDbBlockTableRecord
  2
*D6
340
0
  0
BLOCK_RECORD
  5
23B
330
1
100
AcDbSymbolTableRecord
100
AcDbBlockTableRecord
  2
*D7
340
0
  0
BLOCK_RECORD
  5
255
330
1
100
AcDbSymbolTableRecord
100
AcDbBlockTableRecord
  2
*D8
340
0
  0
BLOCK_RECORD
  5
26F
330
1
100
AcDbSymbolTableRecord
100
AcDbBlockTableRecord
  2
*D9
340
0
  0
BLOCK_RECORD
  5
289
330
1
100
AcDbSymbolTableRecord
100
AcDbBlockTableRecord
  2
*D10
340
0
  0
BLOCK_RECORD
  5
2A7
330
1
100
AcDbSymbolTableRecord
100
AcDbBlockTableRecord
  2
*D11
340
0
  0
BLOCK_RECORD
  5
2CB
330
1
100
AcDbSymbolTableRecord
100
AcDbBlockTableRecord
  2
*D12
340
0
  0
BLOCK_RECORD
  5
310
330
1
100
AcDbSymbolTableRecord
100
AcDbBlockTableRecord
  2
A$C390C0F3E
340
0
  0
BLOCK_RECORD
  5
451
330
1
100
AcDbSymbolTableRecord
100
AcDbBlockTableRecord
  2
*D14
340
0
  0
BLOCK_RECORD
  5
5B7
330
1
100
AcDbSymbolTableRecord
100
AcDbBlockTableRecord
  2
*D15
340
0
  0
BLOCK_RECORD
  5
64B
330
1
100
AcDbSymbolTableRecord
100
AcDbBlockTableRecord
  2
*D16
340
0
  0
BLOCK_RECORD
  5
6BE
330
1
100
AcDbSymbolTableRecord
100
AcDbBlockTableRecord
  2
*D17
340
0
  0
BLOCK_RECORD
  5
6E6
330
1
100
AcDbSymbolTableRecord
100
AcDbBlockTableRecord
  2
*D18
340
0
  0
BLOCK_RECORD
  5
700
330
1
100
AcDbSymbolTableRecord
100
AcDbBlockTableRecord
  2
*D19
340
0
  0
ENDTAB
  0
ENDSEC
  0
SECTION
  2
BLOCKS
  0
BLOCK
  5
20
330
1F
100
AcDbEntity
  8
0
100
AcDbBlockBegin
  2
*Model_Space
 70
     0
 10
0.0
 20
0.0
 30
0.0
  3
*Model_Space
  1

  0
ENDBLK
  5
21
330
1F
100
AcDbEntity
  8
0
100
AcDbBlockEnd
  0
BLOCK
  5
1C
330
1B
100
AcDbEntity
 67
     1
  8
0
100
AcDbBlockBegin
  2
*Paper_Space
 70
     0
 10
0.0
 20
0.0
 30
0.0
  3
*Paper_Space
  1

  0
ENDBLK
  5
1D
330
1B
100
AcDbEntity
 67
     1
  8
0
100
AcDbBlockEnd
  0
BLOCK
  5
24
330
23
100
AcDbEntity
  8
0
100
AcDbBlockBegin
  2
*Paper_Space0
 70
     0
 10
0.0
 20
0.0
 30
0.0
  3
*Paper_Space0
  1

  0
ENDBLK
  5
25
330
23
100
AcDbEntity
  8
0
100
AcDbBlockEnd
  0
BLOCK
  5
1AA
330
19F
100
AcDbEntity
  8
0
100
AcDbBlockBegin
  2
*D1
 70
     1
 10
0.0
 20
0.0
 30
0.0
  3
*D1
  1

  0
LINE
  5
792
330
19F
100
AcDbEntity
  8
Dimensions
 62
     0
370
    -2
100
AcDbLine
 10
127.6738010522509
 20
169.9999999999288
 30
0.0
 11
127.6738010522509
 21
159.9999999999288
 31
0.0
  0
LINE
  5
793
330
19F
100
AcDbEntity
  8
Dimensions
 62
     0
370
    -2
100
AcDbLine
 10
232.4048178534245
 20
169.9999999999288
 30
0.0
 11
232.4048178534245
 21
159.9999999999288
 31
0.0
  0
LINE
  5
794
330
19F
100
AcDbEntity
  8
Dimensions
 62
     0
370
    -2
100
AcDbLine
 10
137.6738010522508
 20
149.9999999999289
 30
0.0
 11
147.6417783400281
 21
149.9999999999289
 31
0.0
  0
LINE
  5
795
330
19F
100
AcDbEntity
  8
Dimensions
 62
     0
370
    -2
100
AcDbLine
 10
222.4048178534244
 20
149.9999999999289
 30
0.0
 11
179.3084450066947
 21
149.9999999999289
 31
0.0
  0
SOLID
  5
796
330
19F
100
AcDbEntity
  8
Dimensions
 62
     0
100
AcDbTrace
 10
137.6738010522508
 20
151.6666666665955
 30
0.0
 11
137.6738010522508
 21
148.3333333332622
 31
0.0
 12
127.6738010522509
 22
149.9999999999289
 32
0.0
 13
127.6738010522509
 23
149.9999999999289
 33
0.0
  0
SOLID
  5
797
330
19F
100
AcDbEntity
  8
Dimensions
 62
     0
100
AcDbTrace
 10
222.4048178534244
 20
151.6666666665955
 30
0.0
 11
222.4048178534244
 21
148.3333333332622
 31
0.0
 12
232.4048178534245
 22
149.9999999999289
 32
0.0
 13
232.4048178534245
 23
149.9999999999289
 33
0.0
  0
MTEXT
  5
798
330
19F
100
AcDbEntity
  8
Dimensions
 62
     0
100
AcDbMText
 10
163.4751116733614
 20
149.9999999999289
 30
0.0
 40
10.0
 41
0.0
 71
     5
 72
     1
  1
\A1;105
 73
     1
 44
1.0
  0
POINT
  5
799
330
19F
100
AcDbEntity
  8
Defpoints
 62
     0
100
AcDbPoint
 10
127.6738010522509
 20
149.9999999999288
 30
0.0
  0
POINT
  5
79A
330
19F
100
AcDbEntity
  8
Defpoints
 62
     0
100
AcDbPoint
 10
232.4048178534245
 20
149.9999999999289
 30
0.0
  0
POINT
  5
79B
330
19F
100
AcDbEntity
  8
Defpoints
 62
     0
100
AcDbPoint
 10
232.4048178534245
 20
149.9999999999289
 30
0.0
  0
ENDBLK
  5
1AB
330
19F
100
AcDbEntity
  8
0
100
AcDbBlockEnd
  0
BLOCK
  5
1C4
330
1B9
100
AcDbEntity
  8
0
100
AcDbBlockBegin
  2
*D2
 70
     1
 10
0.0
 20
0.0
 30
0.0
  3
*D2
  1

  0
LINE
  5
77E
330
1B9
100
AcDbEntity
  8
Dimensions
 62
     0
370
    -2
100
AcDbLine
 10
106.8863088767382
 20
219.9999999999288
 30
0.0
 11
106.8863088767382
 21
209.9999999999289
 31
0.0
  0
LINE
  5
77F
330
1B9
100
AcDbEntity
  8
Dimensions
 62
     0
370
    -2
100
AcDbLine
 10
254.2268234299084
 20
219.9999999999288
 30
0.0
 11
254.2268234299084
 21
209.9999999999289
 31
0.0
  0
LINE
  5
780
330
1B9
100
AcDbEntity
  8
Dimensions
 62
     0
370
    -2
100
AcDbLine
 10
116.8863088767382
 20
199.9999999999289
 30
0.0
 11
135.7596030535217
 21
199.9999999999289
 31
0.0
  0
LINE
  5
781
330
1B9
100
AcDbEntity
  8
Dimensions
 62
     0
370
    -2
100
AcDbLine
 10
244.2268234299084
 20
199.9999999999289
 30
0.0
 11
169.092936386855
 21
199.9999999999289
 31
0.0
  0
SOLID
  5
782
330
1B9
100
AcDbEntity
  8
Dimensions
 62
     0
100
AcDbTrace
 10
116.8863088767382
 20
201.6666666665955
 30
0.0
 11
116.8863088767382
 21
198.3333333332622
 31
0.0
 12
106.8863088767382
 22
199.9999999999289
 32
0.0
 13
106.8863088767382
 23
199.9999999999289
 33
0.0
  0
SOLID
  5
783
330
1B9
100
AcDbEntity
  8
Dimensions
 62
     0
100
AcDbTrace
 10
244.2268234299084
 20
201.6666666665955
 30
0.0
 11
244.2268234299084
 21
198.3333333332622
 31
0.0
 12
254.2268234299084
 22
199.9999999999289
 32
0.0
 13
254.2268234299084
 23
199.9999999999289
 33
0.0
  0
MTEXT
  5
784
330
1B9
100
AcDbEntity
  8
Dimensions
 62
     0
100
AcDbMText
 10
152.4262697201884
 20
199.9999999999289
 30
0.0
 40
10.0
 41
0.0
 71
     5
 72
     1
  1
\A1;147
 73
     1
 44
1.0
  0
POINT
  5
785
330
1B9
100
AcDbEntity
  8
Defpoints
 62
     0
100
AcDbPoint
 10
106.8863088767382
 20
199.9999999999289
 30
0.0
  0
POINT
  5
786
330
1B9
100
AcDbEntity
  8
Defpoints
 62
     0
100
AcDbPoint
 10
254.2268234299084
 20
199.9999999999289
 30
0.0
  0
POINT
  5
787
330
1B9
100
AcDbEntity
  8
Defpoints
 62
     0
100
AcDbPoint
 10
254.2268234299084
 20
199.9999999999289
 30
0.0
  0
ENDBLK
  5
1C5
330
1B9
100
AcDbEntity
  8
0
100
AcDbBlockEnd
  0
BLOCK
  5
1DE
330
1D3
100
AcDbEntity
  8
0
100
AcDbBlockBegin
  2
*D3
 70
     1
 10
0.0
 20
0.0
 30
0.0
  3
*D3
  1

  0
LINE
  5
774
330
1D3
100
AcDbEntity
  8
Dimensions
 62
     0
370
    -2
100
AcDbLine
 10
95.67295341172439
 20
229.9999999999288
 30
0.0
 11
95.67295341172439
 21
239.9999999999288
 31
0.0
  0
LINE
  5
775
330
1D3
100
AcDbEntity
  8
Dimensions
 62
     0
370
    -2
100
AcDbLine
 10
265.3500147910842
 20
269.9999999999288
 30
0.0
 11
265.3500147910842
 21
259.9999999999288
 31
0.0
  0
LINE
  5
776
330
1D3
100
AcDbEntity
  8
Dimensions
 62
     0
370
    -2
100
AcDbLine
 10
105.6729534117244
 20
249.9999999999288
 30
0.0
 11
122.7818870589277
 21
249.9999999999288
 31
0.0
  0
LINE
  5
777
330
1D3
100
AcDbEntity
  8
Dimensions
 62
     0
370
    -2
100
AcDbLine
 10
255.3500147910842
 20
249.9999999999288
 30
0.0
 11
154.4485537255944
 21
249.9999999999288
 31
0.0
  0
SOLID
  5
778
330
1D3
100
AcDbEntity
  8
Dimensions
 62
     0
100
AcDbTrace
 10
105.6729534117244
 20
251.6666666665954
 30
0.0
 11
105.6729534117244
 21
248.3333333332621
 31
0.0
 12
95.67295341172439
 22
249.9999999999288
 32
0.0
 13
95.67295341172439
 23
249.9999999999288
 33
0.0
  0
SOLID
  5
779
330
1D3
100
AcDbEntity
  8
Dimensions
 62
     0
100
AcDbTrace
 10
255.3500147910842
 20
251.6666666665954
 30
0.0
 11
255.3500147910842
 21
248.3333333332621
 31
0.0
 12
265.3500147910842
 22
249.9999999999288
 32
0.0
 13
265.3500147910842
 23
249.9999999999288
 33
0.0
  0
MTEXT
  5
77A
330
1D3
100
AcDbEntity
  8
Dimensions
 62
     0
100
AcDbMText
 10
138.6152203922611
 20
249.9999999999288
 30
0.0
 40
10.0
 41
0.0
 71
     5
 72
     1
  1
\A1;170
 73
     1
 44
1.0
  0
POINT
  5
77B
330
1D3
100
AcDbEntity
  8
Defpoints
 62
     0
100
AcDbPoint
 10
95.67295341172439
 20
249.9999999999289
 30
0.0
  0
POINT
  5
77C
330
1D3
100
AcDbEntity
  8
Defpoints
 62
     0
100
AcDbPoint
 10
265.3500147910842
 20
249.9999999999288
 30
0.0
  0
POINT
  5
77D
330
1D3
100
AcDbEntity
  8
Defpoints
 62
     0
100
AcDbPoint
 10
265.3500147910842
 20
249.9999999999288
 30
0.0
  0
ENDBLK
  5
1DF
330
1D3
100
AcDbEntity
  8
0
100
AcDbBlockEnd
  0
BLOCK
  5
1F8
330
1ED
100
AcDbEntity
  8
0
100
AcDbBlockBegin
  2
*D4
 70
     1
 10
0.0
 20
0.0
 30
0.0
  3
*D4
  1

  0
LINE
  5
76A
330
1ED
100
AcDbEntity
  8
Dimensions
 62
     0
370
    -2
100
AcDbLine
 10
89.00000000003215
 20
321.0000000000184
 30
0.0
 11
89.00000000003215
 21
311.0000000003032
 31
0.0
  0
LINE
  5
76B
330
1ED
100
AcDbEntity
  8
Dimensions
 62
     0
370
    -2
100
AcDbLine
 10
272.9999999998987
 20
321.0000000000263
 30
0.0
 11
272.9999999998987
 21
311.0000000003032
 31
0.0
  0
LINE
  5
76C
330
1ED
100
AcDbEntity
  8
Dimensions
 62
     0
370
    -2
100
AcDbLine
 10
99.00000000003215
 20
301.0000000003032
 30
0.0
 11
123.329661564357
 21
301.0000000003032
 31
0.0
  0
LINE
  5
76D
330
1ED
100
AcDbEntity
  8
Dimensions
 62
     0
370
    -2
100
AcDbLine
 10
262.9999999998986
 20
301.0000000003032
 30
0.0
 11
156.6629948976903
 21
301.0000000003032
 31
0.0
  0
SOLID
  5
76E
330
1ED
100
AcDbEntity
  8
Dimensions
 62
     0
100
AcDbTrace
 10
99.00000000003215
 20
302.6666666669699
 30
0.0
 11
99.00000000003215
 21
299.3333333336365
 31
0.0
 12
89.00000000003215
 22
301.0000000003032
 32
0.0
 13
89.00000000003215
 23
301.0000000003032
 33
0.0
  0
SOLID
  5
76F
330
1ED
100
AcDbEntity
  8
Dimensions
 62
     0
100
AcDbTrace
 10
262.9999999998986
 20
302.6666666669699
 30
0.0
 11
262.9999999998986
 21
299.3333333336365
 31
0.0
 12
272.9999999998987
 22
301.0000000003032
 32
0.0
 13
272.9999999998987
 23
301.0000000003032
 33
0.0
  0
MTEXT
  5
770
330
1ED
100
AcDbEntity
  8
Dimensions
 62
     0
100
AcDbMText
 10
139.9963282310236
 20
301.0000000003032
 30
0.0
 40
10.0
 41
0.0
 71
     5
 72
     1
  1
\A1;184
 73
     1
 44
1.0
  0
POINT
  5
771
330
1ED
100
AcDbEntity
  8
Defpoints
 62
     0
100
AcDbPoint
 10
89.00000000003215
 20
301.0000000000184
 30
0.0
  0
POINT
  5
772
330
1ED
100
AcDbEntity
  8
Defpoints
 62
     0
100
AcDbPoint
 10
272.9999999998987
 20
301.0000000000264
 30
0.0
  0
POINT
  5
773
330
1ED
100
AcDbEntity
  8
Defpoints
 62
     0
100
AcDbPoint
 10
272.9999999998987
 20
301.0000000003032
 30
0.0
  0
ENDBLK
  5
1F9
330
1ED
100
AcDbEntity
  8
0
100
AcDbBlockEnd
  0
BLOCK
  5
212
330
207
100
AcDbEntity
  8
0
100
AcDbBlockBegin
  2
*D5
 70
     1
 10
0.0
 20
0.0
 30
0.0
  3
*D5
  1

  0
LINE
  5
760
330
207
100
AcDbEntity
  8
Dimensions
 62
     0
370
    -2
100
AcDbLine
 10
86.22035126007791
 20
369.9999999999288
 30
0.0
 11
86.22035126007791
 21
359.9999999999289
 31
0.0
  0
LINE
  5
761
330
207
100
AcDbEntity
  8
Dimensions
 62
     0
370
    -2
100
AcDbLine
 10
276.6824720966746
 20
369.9999999999288
 30
0.0
 11
276.6824720966746
 21
359.9999999999289
 31
0.0
  0
LINE
  5
762
330
207
100
AcDbEntity
  8
Dimensions
 62
     0
370
    -2
100
AcDbLine
 10
96.22035126007791
 20
349.9999999999289
 30
0.0
 11
124.1629948976903
 21
349.9999999999289
 31
0.0
  0
LINE
  5
763
330
207
100
AcDbEntity
  8
Dimensions
 62
     0
370
    -2
100
AcDbLine
 10
266.6824720966745
 20
349.9999999999289
 30
0.0
 11
155.829661564357
 21
349.9999999999289
 31
0.0
  0
SOLID
  5
764
330
207
100
AcDbEntity
  8
Dimensions
 62
     0
100
AcDbTrace
 10
96.22035126007791
 20
351.6666666665955
 30
0.0
 11
96.22035126007791
 21
348.3333333332621
 31
0.0
 12
86.22035126007791
 22
349.9999999999289
 32
0.0
 13
86.22035126007791
 23
349.9999999999289
 33
0.0
  0
SOLID
  5
765
330
207
100
AcDbEntity
  8
Dimensions
 62
     0
100
AcDbTrace
 10
266.6824720966745
 20
351.6666666665955
 30
0.0
 11
266.6824720966745
 21
348.3333333332621
 31
0.0
 12
276.6824720966746
 22
349.9999999999289
 32
0.0
 13
276.6824720966746
 23
349.9999999999289
 33
0.0
  0
MTEXT
  5
766
330
207
100
AcDbEntity
  8
Dimensions
 62
     0
100
AcDbMText
 10
139.9963282310236
 20
349.9999999999289
 30
0.0
 40
10.0
 41
0.0
 71
     5
 72
     1
  1
\A1;190
 73
     1
 44
1.0
  0
POINT
  5
767
330
207
100
AcDbEntity
  8
Defpoints
 62
     0
100
AcDbPoint
 10
86.22035126007791
 20
349.9999999999289
 30
0.0
  0
POINT
  5
768
330
207
100
AcDbEntity
  8
Defpoints
 62
     0
100
AcDbPoint
 10
276.6824720966746
 20
349.9999999999289
 30
0.0
  0
POINT
  5
769
330
207
100
AcDbEntity
  8
Defpoints
 62
     0
100
AcDbPoint
 10
276.6824720966746
 20
349.9999999999289
 30
0.0
  0
ENDBLK
  5
213
330
207
100
AcDbEntity
  8
0
100
AcDbBlockEnd
  0
BLOCK
  5
22C
330
221
100
AcDbEntity
  8
0
100
AcDbBlockBegin
  2
*D6
 70
     1
 10
0.0
 20
0.0
 30
0.0
  3
*D6
  1

  0
LINE
  5
756
330
221
100
AcDbEntity
  8
Dimensions
 62
     0
370
    -2
100
AcDbLine
 10
85.44289394901104
 20
419.9999999999288
 30
0.0
 11
85.44289394901104
 21
409.9999999999289
 31
0.0
  0
LINE
  5
757
330
221
100
AcDbEntity
  8
Dimensions
 62
     0
370
    -2
100
AcDbLine
 10
277.499831901387
 20
415.9643500599101
 30
0.0
 11
277.499831901387
 21
409.9999999999289
 31
0.0
  0
LINE
  5
758
330
221
100
AcDbEntity
  8
Dimensions
 62
     0
370
    -2
100
AcDbLine
 10
95.44289394901104
 20
399.9999999999289
 30
0.0
 11
123.329661564357
 21
399.9999999999289
 31
0.0
  0
LINE
  5
759
330
221
100
AcDbEntity
  8
Dimensions
 62
     0
370
    -2
100
AcDbLine
 10
267.4998319013869
 20
399.9999999999289
 30
0.0
 11
156.6629948976903
 21
399.9999999999289
 31
0.0
  0
SOLID
  5
75A
330
221
100
AcDbEntity
  8
Dimensions
 62
     0
100
AcDbTrace
 10
95.44289394901104
 20
401.6666666665956
 30
0.0
 11
95.44289394901104
 21
398.3333333332621
 31
0.0
 12
85.44289394901104
 22
399.9999999999289
 32
0.0
 13
85.44289394901104
 23
399.9999999999289
 33
0.0
  0
SOLID
  5
75B
330
221
100
AcDbEntity
  8
Dimensions
 62
     0
100
AcDbTrace
 10
267.4998319013869
 20
401.6666666665956
 30
0.0
 11
267.4998319013869
 21
398.3333333332621
 31
0.0
 12
277.499831901387
 22
399.9999999999289
 32
0.0
 13
277.499831901387
 23
399.9999999999289
 33
0.0
  0
MTEXT
  5
75C
330
221
100
AcDbEntity
  8
Dimensions
 62
     0
100
AcDbMText
 10
139.9963282310236
 20
399.9999999999289
 30
0.0
 40
10.0
 41
0.0
 71
     5
 72
     1
  1
\A1;192
 73
     1
 44
1.0
  0
POINT
  5
75D
330
221
100
AcDbEntity
  8
Defpoints
 62
     0
100
AcDbPoint
 10
85.44289394901104
 20
399.9999999999289
 30
0.0
  0
POINT
  5
75E
330
221
100
AcDbEntity
  8
Defpoints
 62
     0
100
AcDbPoint
 10
277.499831901387
 20
395.9643500599101
 30
0.0
  0
POINT
  5
75F
330
221
100
AcDbEntity
  8
Defpoints
 62
     0
100
AcDbPoint
 10
277.499831901387
 20
399.9999999999289
 30
0.0
  0
ENDBLK
  5
22D
330
221
100
AcDbEntity
  8
0
100
AcDbBlockEnd
  0
BLOCK
  5
246
330
23B
100
AcDbEntity
  8
0
100
AcDbBlockBegin
  2
*D7
 70
     1
 10
0.0
 20
0.0
 30
0.0
  3
*D7
  1

  0
LINE
  5
72E
330
23B
100
AcDbEntity
  8
Dimensions
 62
     0
370
    -2
100
AcDbLine
 10
84.75250000000093
 20
469.9999999999287
 30
0.0
 11
84.75250000000093
 21
459.9999999999288
 31
0.0
  0
LINE
  5
72F
330
23B
100
AcDbEntity
  8
Dimensions
 62
     0
370
    -2
100
AcDbLine
 10
278.381144690396
 20
466.6501961277509
 30
0.0
 11
278.381144690396
 21
459.9999999999288
 31
0.0
  0
LINE
  5
730
330
23B
100
AcDbEntity
  8
Dimensions
 62
     0
370
    -2
100
AcDbLine
 10
94.75250000000093
 20
449.9999999999287
 30
0.0
 11
124.7107652517337
 21
449.9999999999287
 31
0.0
  0
LINE
  5
731
330
23B
100
AcDbEntity
  8
Dimensions
 62
     0
370
    -2
100
AcDbLine
 10
268.381144690396
 20
449.9999999999287
 30
0.0
 11
158.044098585067
 21
449.9999999999287
 31
0.0
  0
SOLID
  5
732
330
23B
100
AcDbEntity
  8
Dimensions
 62
     0
100
AcDbTrace
 10
94.75250000000093
 20
451.6666666665954
 30
0.0
 11
94.75250000000093
 21
448.3333333332621
 31
0.0
 12
84.75250000000093
 22
449.9999999999287
 32
0.0
 13
84.75250000000093
 23
449.9999999999287
 33
0.0
  0
SOLID
  5
733
330
23B
100
AcDbEntity
  8
Dimensions
 62
     0
100
AcDbTrace
 10
268.381144690396
 20
451.6666666665954
 30
0.0
 11
268.381144690396
 21
448.3333333332621
 31
0.0
 12
278.381144690396
 22
449.9999999999287
 32
0.0
 13
278.381144690396
 23
449.9999999999287
 33
0.0
  0
MTEXT
  5
734
330
23B
100
AcDbEntity
  8
Dimensions
 62
     0
100
AcDbMText
 10
141.3774319184003
 20
449.9999999999287
 30
0.0
 40
10.0
 41
0.0
 71
     5
 72
     1
  1
\A1;194
 73
     1
 44
1.0
  0
POINT
  5
735
330
23B
100
AcDbEntity
  8
Defpoints
 62
     0
100
AcDbPoint
 10
84.75250000000093
 20
449.9999999999287
 30
0.0
  0
POINT
  5
736
330
23B
100
AcDbEntity
  8
Defpoints
 62
     0
100
AcDbPoint
 10
278.381144690396
 20
446.6501961277509
 30
0.0
  0
POINT
  5
737
330
23B
100
AcDbEntity
  8
Defpoints
 62
     0
100
AcDbPoint
 10
278.381144690396
 20
449.9999999999287
 30
0.0
  0
ENDBLK
  5
247
330
23B
100
AcDbEntity
  8
0
100
AcDbBlockEnd
  0
BLOCK
  5
260
330
255
100
AcDbEntity
  8
0
100
AcDbBlockBegin
  2
*D8
 70
     1
 10
0.0
 20
0.0
 30
0.0
  3
*D8
  1

  0
LINE
  5
74C
330
255
100
AcDbEntity
  8
Dimensions
 62
     0
370
    -2
100
AcDbLine
 10
84.06500000000075
 20
479.999999999929
 30
0.0
 11
84.06500000000075
 21
489.9999999999288
 31
0.0
  0
LINE
  5
74D
330
255
100
AcDbEntity
  8
Dimensions
 62
     0
370
    -2
100
AcDbLine
 10
279.8870890430078
 20
479.999999999929
 30
0.0
 11
279.8870890430078
 21
489.9999999999288
 31
0.0
  0
LINE
  5
74E
330
255
100
AcDbEntity
  8
Dimensions
 62
     0
370
    -2
100
AcDbLine
 10
94.06500000000075
 20
499.9999999999288
 30
0.0
 11
123.329661564357
 21
499.9999999999288
 31
0.0
  0
LINE
  5
74F
330
255
100
AcDbEntity
  8
Dimensions
 62
     0
370
    -2
100
AcDbLine
 10
269.8870890430077
 20
499.9999999999288
 30
0.0
 11
156.6629948976903
 21
499.9999999999288
 31
0.0
  0
SOLID
  5
750
330
255
100
AcDbEntity
  8
Dimensions
 62
     0
100
AcDbTrace
 10
94.06500000000075
 20
501.6666666665956
 30
0.0
 11
94.06500000000075
 21
498.3333333332621
 31
0.0
 12
84.06500000000075
 22
499.9999999999288
 32
0.0
 13
84.06500000000075
 23
499.9999999999288
 33
0.0
  0
SOLID
  5
751
330
255
100
AcDbEntity
  8
Dimensions
 62
     0
100
AcDbTrace
 10
269.8870890430077
 20
501.6666666665956
 30
0.0
 11
269.8870890430077
 21
498.3333333332621
 31
0.0
 12
279.8870890430078
 22
499.9999999999288
 32
0.0
 13
279.8870890430078
 23
499.9999999999288
 33
0.0
  0
MTEXT
  5
752
330
255
100
AcDbEntity
  8
Dimensions
 62
     0
100
AcDbMText
 10
139.9963282310236
 20
499.9999999999288
 30
0.0
 40
10.0
 41
0.0
 71
     5
 72
     1
  1
\A1;196
 73
     1
 44
1.0
  0
POINT
  5
753
330
255
100
AcDbEntity
  8
Defpoints
 62
     0
100
AcDbPoint
 10
84.06500000000075
 20
499.999999999929
 30
0.0
  0
POINT
  5
754
330
255
100
AcDbEntity
  8
Defpoints
 62
     0
100
AcDbPoint
 10
279.8870890430078
 20
499.999999999929
 30
0.0
  0
POINT
  5
755
330
255
100
AcDbEntity
  8
Defpoints
 62
     0
100
AcDbPoint
 10
279.8870890430078
 20
499.9999999999288
 30
0.0
  0
ENDBLK
  5
261
330
255
100
AcDbEntity
  8
0
100
AcDbBlockEnd
  0
BLOCK
  5
27A
330
26F
100
AcDbEntity
  8
0
100
AcDbBlockBegin
  2
*D9
 70
     1
 10
0.0
 20
0.0
 30
0.0
  3
*D9
  1

  0
LINE
  5
742
330
26F
100
AcDbEntity
  8
Dimensions
 62
     0
370
    -2
100
AcDbLine
 10
83.4594347003194
 20
569.9999999999286
 30
0.0
 11
83.4594347003194
 21
559.9999999999288
 31
0.0
  0
LINE
  5
743
330
26F
100
AcDbEntity
  8
Dimensions
 62
     0
370
    -2
100
AcDbLine
 10
280.4114654021899
 20
569.9999999999286
 30
0.0
 11
280.4114654021899
 21
559.9999999999288
 31
0.0
  0
LINE
  5
744
330
26F
100
AcDbEntity
  8
Dimensions
 62
     0
370
    -2
100
AcDbLine
 10
93.4594347003194
 20
549.9999999999288
 30
0.0
 11
126.0918689391113
 21
549.9999999999288
 31
0.0
  0
LINE
  5
745
330
26F
100
AcDbEntity
  8
Dimensions
 62
     0
370
    -2
100
AcDbLine
 10
270.4114654021899
 20
549.9999999999288
 30
0.0
 11
159.4252022724446
 21
549.9999999999288
 31
0.0
  0
SOLID
  5
746
330
26F
100
AcDbEntity
  8
Dimensions
 62
     0
100
AcDbTrace
 10
93.4594347003194
 20
551.6666666665954
 30
0.0
 11
93.4594347003194
 21
548.3333333332621
 31
0.0
 12
83.4594347003194
 22
549.9999999999288
 32
0.0
 13
83.4594347003194
 23
549.9999999999288
 33
0.0
  0
SOLID
  5
747
330
26F
100
AcDbEntity
  8
Dimensions
 62
     0
100
AcDbTrace
 10
270.4114654021899
 20
551.6666666665954
 30
0.0
 11
270.4114654021899
 21
548.3333333332621
 31
0.0
 12
280.4114654021899
 22
549.9999999999288
 32
0.0
 13
280.4114654021899
 23
549.9999999999288
 33
0.0
  0
MTEXT
  5
748
330
26F
100
AcDbEntity
  8
Dimensions
 62
     0
100
AcDbMText
 10
142.7585356057779
 20
549.9999999999288
 30
0.0
 40
10.0
 41
0.0
 71
     5
 72
     1
  1
\A1;197
 73
     1
 44
1.0
  0
POINT
  5
749
330
26F
100
AcDbEntity
  8
Defpoints
 62
     0
100
AcDbPoint
 10
83.4594347003194
 20
549.9999999999287
 30
0.0
  0
POINT
  5
74A
330
26F
100
AcDbEntity
  8
Defpoints
 62
     0
100
AcDbPoint
 10
280.4114654021899
 20
549.9999999999287
 30
0.0
  0
POINT
  5
74B
330
26F
100
AcDbEntity
  8
Defpoints
 62
     0
100
AcDbPoint
 10
280.4114654021899
 20
549.9999999999288
 30
0.0
  0
ENDBLK
  5
27B
330
26F
100
AcDbEntity
  8
0
100
AcDbBlockEnd
  0
BLOCK
  5
295
330
289
100
AcDbEntity
  8
0
100
AcDbBlockBegin
  2
*D10
 70
     1
 10
0.0
 20
0.0
 30
0.0
  3
*D10
  1

  0
LINE
  5
617
330
289
100
AcDbEntity
  8
Dimensions
 62
     0
370
    -2
100
AcDbLine
 10
24.0205516635019
 20
99.99999999992887
 30
0.0
 11
-66.07602487266013
 21
99.99999999992892
 31
0.0
  0
LINE
  5
618
330
289
100
AcDbEntity
  8
Dimensions
 62
     0
370
    -2
100
AcDbLine
 10
107.6738010522509
 20
149.9999999999288
 30
0.0
 11
-66.07602487266013
 21
149.9999999999289
 31
0.0
  0
LINE
  5
619
330
289
100
AcDbEntity
  8
Dimensions
 62
     0
370
    -2
100
AcDbLine
 10
-56.07602487266013
 20
109.9999999999289
 30
0.0
 11
-56.07602487266012
 21
139.9999999999288
 31
0.0
  0
LINE
  5
61A
330
289
100
AcDbEntity
  8
Dimensions
 62
     0
370
    -2
100
AcDbLine
 10
-56.07602487266011
 20
149.9999999999289
 30
0.0
 11
-56.07602487266011
 21
159.9999999999288
 31
0.0
  0
LINE
  5
61B
330
289
100
AcDbEntity
  8
Dimensions
 62
     0
370
    -2
100
AcDbLine
 10
-56.07602487266011
 20
159.9999999999288
 30
0.0
 11
-46.07602487266011
 21
159.9999999999288
 31
0.0
  0
SOLID
  5
61C
330
289
100
AcDbEntity
  8
Dimensions
 62
     0
100
AcDbTrace
 10
-57.74269153932679
 20
109.9999999999289
 30
0.0
 11
-54.40935820599346
 21
109.9999999999289
 31
0.0
 12
-56.07602487266013
 22
99.99999999992892
 32
0.0
 13
-56.07602487266013
 23
99.99999999992892
 33
0.0
  0
SOLID
  5
61D
330
289
100
AcDbEntity
  8
Dimensions
 62
     0
100
AcDbTrace
 10
-57.74269153932678
 20
139.9999999999288
 30
0.0
 11
-54.40935820599346
 21
139.9999999999288
 31
0.0
 12
-56.07602487266011
 22
149.9999999999289
 32
0.0
 13
-56.07602487266011
 23
149.9999999999289
 33
0.0
  0
MTEXT
  5
61E
330
289
100
AcDbEntity
  8
Dimensions
 62
     0
100
AcDbMText
 10
-33.57602487266014
 20
159.9999999999288
 30
0.0
 40
10.0
 41
0.0
 71
     5
 72
     1
  1
\A1;50
 73
     1
 44
1.0
  0
POINT
  5
61F
330
289
100
AcDbEntity
  8
Defpoints
 62
     0
100
AcDbPoint
 10
44.0205516635019
 20
99.99999999992887
 30
0.0
  0
POINT
  5
620
330
289
100
AcDbEntity
  8
Defpoints
 62
     0
100
AcDbPoint
 10
127.6738010522509
 20
149.9999999999288
 30
0.0
  0
POINT
  5
621
330
289
100
AcDbEntity
  8
Defpoints
 62
     0
100
AcDbPoint
 10
-56.07602487266011
 20
149.9999999999289
 30
0.0
  0
ENDBLK
  5
296
330
289
100
AcDbEntity
  8
0
100
AcDbBlockEnd
  0
BLOCK
  5
2B2
330
2A7
100
AcDbEntity
  8
0
100
AcDbBlockBegin
  2
*D11
 70
     1
 10
0.0
 20
0.0
 30
0.0
  3
*D11
  1

  0
LINE
  5
603
330
2A7
100
AcDbEntity
  8
Dimensions
 62
     0
370
    -2
100
AcDbLine
 10
144.9999999999122
 20
145.0000000000063
 30
0.0
 11
144.9999999999122
 21
135.0000000000139
 31
0.0
  0
LINE
  5
604
330
2A7
100
AcDbEntity
  8
Dimensions
 62
     0
370
    -2
100
AcDbLine
 10
217.0000000000106
 20
145.0000000000138
 30
0.0
 11
217.0000000000106
 21
135.0000000000139
 31
0.0
  0
LINE
  5
605
330
2A7
100
AcDbEntity
  8
Dimensions
 62
     0
370
    -2
100
AcDbLine
 10
154.9999999999123
 20
125.0000000000138
 30
0.0
 11
167.6666666666282
 21
125.0000000000138
 31
0.0
  0
LINE
  5
606
330
2A7
100
AcDbEntity
  8
Dimensions
 62
     0
370
    -2
100
AcDbLine
 10
207.0000000000106
 20
125.0000000000138
 30
0.0
 11
194.3333333332948
 21
125.0000000000138
 31
0.0
  0
SOLID
  5
607
330
2A7
100
AcDbEntity
  8
Dimensions
 62
     0
100
AcDbTrace
 10
154.9999999999123
 20
126.6666666666804
 30
0.0
 11
154.9999999999123
 21
123.3333333333471
 31
0.0
 12
144.9999999999122
 22
125.0000000000138
 32
0.0
 13
144.9999999999122
 23
125.0000000000138
 33
0.0
  0
SOLID
  5
608
330
2A7
100
AcDbEntity
  8
Dimensions
 62
     0
100
AcDbTrace
 10
207.0000000000106
 20
126.6666666666804
 30
0.0
 11
207.0000000000106
 21
123.3333333333471
 31
0.0
 12
217.0000000000106
 22
125.0000000000138
 32
0.0
 13
217.0000000000106
 23
125.0000000000138
 33
0.0
  0
MTEXT
  5
609
330
2A7
100
AcDbEntity
  8
Dimensions
 62
     0
100
AcDbMText
 10
180.9999999999615
 20
125.0000000000138
 30
0.0
 40
10.0
 41
0.0
 71
     5
 72
     1
  1
\A1;72
 73
     1
 44
1.0
  0
POINT
  5
60A
330
2A7
100
AcDbEntity
  8
Defpoints
 62
     0
100
AcDbPoint
 10
144.9999999999122
 20
125.0000000000063
 30
0.0
  0
POINT
  5
60B
330
2A7
100
AcDbEntity
  8
Defpoints
 62
     0
100
AcDbPoint
 10
217.0000000000106
 20
125.0000000000138
 30
0.0
  0
POINT
  5
60C
330
2A7
100
AcDbEntity
  8
Defpoints
 62
     0
100
AcDbPoint
 10
217.0000000000106
 20
125.0000000000138
 30
0.0
  0
ENDBLK
  5
2B3
330
2A7
100
AcDbEntity
  8
0
100
AcDbBlockEnd
  0
BLOCK
  5
2D6
330
2CB
100
AcDbEntity
  8
0
100
AcDbBlockBegin
  2
*D12
 70
     1
 10
0.0
 20
0.0
 30
0.0
  3
*D12
  1

  0
LINE
  5
60D
330
2CB
100
AcDbEntity
  8
Dimensions
 62
     0
370
    -2
100
AcDbLine
 10
24.0205516635019
 20
99.99999999992887
 30
0.0
 11
-28.18859181606969
 21
99.99999999992887
 31
0.0
  0
LINE
  5
60E
330
2CB
100
AcDbEntity
  8
Dimensions
 62
     0
370
    -2
100
AcDbLine
 10
124.9999999999832
 20
124.9999999999288
 30
0.0
 11
-28.18859181606967
 21
124.9999999999289
 31
0.0
  0
LINE
  5
60F
330
2CB
100
AcDbEntity
  8
Dimensions
 62
     0
370
    -2
100
AcDbLine
 10
-18.18859181606967
 20
89.99999999992889
 30
0.0
 11
-18.18859181606967
 21
79.99999999992889
 31
0.0
  0
LINE
  5
610
330
2CB
100
AcDbEntity
  8
Dimensions
 62
     0
370
    -2
100
AcDbLine
 10
-18.18859181606967
 20
134.9999999999288
 30
0.0
 11
-18.18859181606967
 21
144.9999999999288
 31
0.0
  0
SOLID
  5
611
330
2CB
100
AcDbEntity
  8
Dimensions
 62
     0
100
AcDbTrace
 10
-19.85525848273635
 20
89.99999999992889
 30
0.0
 11
-16.52192514940301
 21
89.99999999992889
 31
0.0
 12
-18.18859181606967
 22
99.99999999992887
 32
0.0
 13
-18.18859181606967
 23
99.99999999992887
 33
0.0
  0
SOLID
  5
612
330
2CB
100
AcDbEntity
  8
Dimensions
 62
     0
100
AcDbTrace
 10
-19.85525848273633
 20
134.9999999999288
 30
0.0
 11
-16.521925149403
 21
134.9999999999288
 31
0.0
 12
-18.18859181606967
 22
124.9999999999289
 32
0.0
 13
-18.18859181606967
 23
124.9999999999289
 33
0.0
  0
MTEXT
  5
613
330
2CB
100
AcDbEntity
  8
Dimensions
 62
     0
100
AcDbMText
 10
-18.18859181606969
 20
112.4999999999289
 30
0.0
 40
10.0
 41
0.0
 71
     5
 72
     1
  1
\A1;25
 73
     1
 44
1.0
  0
POINT
  5
614
330
2CB
100
AcDbEntity
  8
Defpoints
 62
     0
100
AcDbPoint
 10
44.0205516635019
 20
99.99999999992887
 30
0.0
  0
POINT
  5
615
330
2CB
100
AcDbEntity
  8
Defpoints
 62
     0
100
AcDbPoint
 10
144.9999999999833
 20
124.9999999999288
 30
0.0
  0
POINT
  5
616
330
2CB
100
AcDbEntity
  8
Defpoints
 62
     0
100
AcDbPoint
 10
-18.18859181606967
 20
124.9999999999289
 30
0.0
  0
ENDBLK
  5
2D7
330
2CB
100
AcDbEntity
  8
0
100
AcDbBlockEnd
  0
BLOCK
  5
317
330
310
100
AcDbEntity
  8
0
100
AcDbBlockBegin
  2
A$C390C0F3E
 70
     0
 10
0.0
 20
0.0
 30
0.0
  3
A$C390C0F3E
  1

  0
ARC
  5
311
330
310
100
AcDbEntity
  8
CK_LEVEL_2
  6
Continuous
 62
     3
100
AcDbCircle
 10
65.73929328898111
 20
80.31216717022187
 30
0.0
 40
89.5158810708
100
AcDbArc
 50
233.8828827520066
 51
241.9275130640897
  0
ARC
  5
312
330
310
100
AcDbEntity
  8
CK_LEVEL_2
  6
Continuous
 62
     3
100
AcDbCircle
 10
29.16508187708085
 20
11.73552077282191
 30
0.0
 40
11.7956818205
100
AcDbArc
 50
241.9275130640897
 51
264.2107532861897
  0
ARC
  5
313
330
310
100
AcDbEntity
  8
CK_LEVEL_2
  6
Continuous
 62
     3
100
AcDbCircle
 10
28.84079727208109
 20
8.537027674521921
 30
0.0
 40
8.580791681699999
100
AcDbArc
 50
264.2107532861897
 51
295.2011236454904
  0
ARC
  5
314
330
310
100
AcDbEntity
  8
CK_LEVEL_2
  6
Continuous
 62
     3
100
AcDbCircle
 10
-3.658512692219118
 20
77.59806134862185
 30
0.0
 40
84.9066164088
100
AcDbArc
 50
295.2011236454904
 51
304.9451001796048
  0
ARC
  5
315
330
310
100
AcDbEntity
  8
CK_LEVEL_2
  6
Continuous
 62
     3
100
AcDbCircle
 10
-63.69438957281909
 20
163.5132732983219
 30
0.0
 40
189.7194503424
100
AcDbArc
 50
304.9451001796048
 51
310.3645365731042
  0
ARC
  5
316
330
310
100
AcDbEntity
  8
CK_LEVEL_2
  6
Continuous
 62
     3
100
AcDbCircle
 10
144.3618083562808
 20
188.0629140376219
 30
0.0
 40
222.9014999583
100
AcDbArc
 50
229.6354634268956
 51
233.8828827520066
  0
ENDBLK
  5
318
330
310
100
AcDbEntity
  8
0
100
AcDbBlockEnd
  0
BLOCK
  5
45C
330
451
100
AcDbEntity
  8
0
100
AcDbBlockBegin
  2
*D14
 70
     1
 10
0.0
 20
0.0
 30
0.0
  3
*D14
  1

  0
LINE
  5
7A6
330
451
100
AcDbEntity
  8
Dimensions
 62
     0
370
    -2
100
AcDbLine
 10
162.3019604198134
 20
129.9999999999288
 30
0.0
 11
162.3019604198134
 21
119.9999999999288
 31
0.0
  0
LINE
  5
7A7
330
451
100
AcDbEntity
  8
Dimensions
 62
     0
370
    -2
100
AcDbLine
 10
199.80745950111
 20
129.9999999999288
 30
0.0
 11
199.80745950111
 21
119.9999999999288
 31
0.0
  0
LINE
  5
7A8
330
451
100
AcDbEntity
  8
Dimensions
 62
     0
370
    -2
100
AcDbLine
 10
172.3019604198134
 20
109.9999999999288
 30
0.0
 11
189.80745950111
 21
109.9999999999288
 31
0.0
  0
LINE
  5
7A9
330
451
100
AcDbEntity
  8
Dimensions
 62
     0
370
    -2
100
AcDbLine
 10
199.80745950111
 20
109.9999999999288
 30
0.0
 11
209.80745950111
 21
109.9999999999288
 31
0.0
  0
SOLID
  5
7AA
330
451
100
AcDbEntity
  8
Dimensions
 62
     0
100
AcDbTrace
 10
172.3019604198134
 20
111.6666666665954
 30
0.0
 11
172.3019604198134
 21
108.3333333332621
 31
0.0
 12
162.3019604198134
 22
109.9999999999288
 32
0.0
 13
162.3019604198134
 23
109.9999999999288
 33
0.0
  0
SOLID
  5
7AB
330
451
100
AcDbEntity
  8
Dimensions
 62
     0
100
AcDbTrace
 10
189.80745950111
 20
111.6666666665954
 30
0.0
 11
189.80745950111
 21
108.3333333332621
 31
0.0
 12
199.80745950111
 22
109.9999999999288
 32
0.0
 13
199.80745950111
 23
109.9999999999288
 33
0.0
  0
MTEXT
  5
7AC
330
451
100
AcDbEntity
  8
Dimensions
 62
     0
100
AcDbMText
 10
223.1407928344434
 20
109.9999999999288
 30
0.0
 40
10.0
 41
0.0
 71
     5
 72
     1
  1
\A1;38
 73
     1
 44
1.0
  0
POINT
  5
7AD
330
451
100
AcDbEntity
  8
Defpoints
 62
     0
100
AcDbPoint
 10
162.3019604198134
 20
109.9999999999288
 30
0.0
  0
POINT
  5
7AE
330
451
100
AcDbEntity
  8
Defpoints
 62
     0
100
AcDbPoint
 10
199.80745950111
 20
109.9999999999288
 30
0.0
  0
POINT
  5
7AF
330
451
100
AcDbEntity
  8
Defpoints
 62
     0
100
AcDbPoint
 10
199.80745950111
 20
109.9999999999288
 30
0.0
  0
ENDBLK
  5
45D
330
451
100
AcDbEntity
  8
0
100
AcDbBlockEnd
  0
BLOCK
  5
5C2
330
5B7
100
AcDbEntity
  8
0
100
AcDbBlockBegin
  2
*D15
 70
     1
 10
0.0
 20
0.0
 30
0.0
  3
*D15
  1

  0
LINE
  5
5C5
330
5B7
100
AcDbEntity
  8
Array
 62
     0
370
    -2
100
AcDbLine
 10
-20.0
 20
592.9999999999997
 30
0.0
 11
-106.064331275445
 21
592.9999999999997
 31
0.0
  0
LINE
  5
5C6
330
5B7
100
AcDbEntity
  8
Array
 62
     0
370
    -2
100
AcDbLine
 10
159.9999999999971
 20
99.99999999992887
 30
0.0
 11
-106.0643312754451
 21
99.99999999992896
 31
0.0
  0
LINE
  5
5C7
330
5B7
100
AcDbEntity
  8
Array
 62
     0
370
    -2
100
AcDbLine
 10
-96.06433127544502
 20
582.9999999999999
 30
0.0
 11
-96.06433127544505
 21
356.4999999999644
 31
0.0
  0
LINE
  5
5C8
330
5B7
100
AcDbEntity
  8
Array
 62
     0
370
    -2
100
AcDbLine
 10
-96.06433127544512
 20
109.9999999999289
 30
0.0
 11
-96.06433127544509
 21
336.4999999999644
 31
0.0
  0
SOLID
  5
5C9
330
5B7
100
AcDbEntity
  8
Array
 62
     0
100
AcDbTrace
 10
-97.73099794211169
 20
582.9999999999999
 30
0.0
 11
-94.39766460877834
 21
582.9999999999999
 31
0.0
 12
-96.06433127544502
 22
592.9999999999997
 32
0.0
 13
-96.06433127544502
 23
592.9999999999997
 33
0.0
  0
SOLID
  5
5CA
330
5B7
100
AcDbEntity
  8
Array
 62
     0
100
AcDbTrace
 10
-97.73099794211178
 20
109.9999999999289
 30
0.0
 11
-94.39766460877844
 21
109.9999999999289
 31
0.0
 12
-96.06433127544512
 22
99.99999999992896
 32
0.0
 13
-96.06433127544512
 23
99.99999999992896
 33
0.0
  0
MTEXT
  5
5CB
330
5B7
100
AcDbEntity
  8
Array
 62
     0
100
AcDbMText
 10
-96.06433127544512
 20
346.4999999999644
 30
0.0
 40
10.0
 41
0.0
 71
     5
 72
     1
  1
\A1;493
 73
     1
 44
1.0
  0
POINT
  5
5CC
330
5B7
100
AcDbEntity
  8
Defpoints
 62
     0
100
AcDbPoint
 10
0.0
 20
592.9999999999997
 30
0.0
  0
POINT
  5
5CD
330
5B7
100
AcDbEntity
  8
Defpoints
 62
     0
100
AcDbPoint
 10
179.9999999999971
 20
99.99999999992887
 30
0.0
  0
POINT
  5
5CE
330
5B7
100
AcDbEntity
  8
Defpoints
 62
     0
100
AcDbPoint
 10
-96.06433127544512
 20
99.99999999992896
 30
0.0
  0
ENDBLK
  5
5C3
330
5B7
100
AcDbEntity
  8
0
100
AcDbBlockEnd
  0
BLOCK
  5
657
330
64B
100
AcDbEntity
  8
0
100
AcDbBlockBegin
  2
*D16
 70
     1
 10
0.0
 20
0.0
 30
0.0
  3
*D16
  1

  0
LINE
  5
666
330
64B
100
AcDbEntity
  8
Array
 62
     0
370
    -2
100
AcDbLine
 10
142.3019604196061
 20
110.0000000000848
 30
0.0
 11
49.44029152332073
 21
110.0000000000848
 31
0.0
  0
LINE
  5
667
330
64B
100
AcDbEntity
  8
Array
 62
     0
370
    -2
100
AcDbLine
 10
159.9999999999971
 20
99.99999999992887
 30
0.0
 11
49.44029152332074
 21
99.99999999992892
 31
0.0
  0
LINE
  5
668
330
64B
100
AcDbEntity
  8
Array
 62
     0
370
    -2
100
AcDbLine
 10
59.44029152332074
 20
120.0000000000849
 30
0.0
 11
59.44029152332074
 21
130.0000000000848
 31
0.0
  0
LINE
  5
669
330
64B
100
AcDbEntity
  8
Array
 62
     0
370
    -2
100
AcDbLine
 10
59.44029152332073
 20
89.99999999992892
 30
0.0
 11
59.44029152332071
 21
79.99999999992889
 31
0.0
  0
LINE
  5
66A
330
64B
100
AcDbEntity
  8
Array
 62
     0
370
    -2
100
AcDbLine
 10
59.44029152332071
 20
79.99999999992889
 30
0.0
 11
49.44029152332071
 21
79.99999999992889
 31
0.0
  0
SOLID
  5
66B
330
64B
100
AcDbEntity
  8
Array
 62
     0
100
AcDbTrace
 10
57.77362485665406
 20
120.0000000000849
 30
0.0
 11
61.1069581899874
 21
120.0000000000849
 31
0.0
 12
59.44029152332073
 22
110.0000000000848
 32
0.0
 13
59.44029152332073
 23
110.0000000000848
 33
0.0
  0
SOLID
  5
66C
330
64B
100
AcDbEntity
  8
Array
 62
     0
100
AcDbTrace
 10
57.77362485665406
 20
89.99999999992892
 30
0.0
 11
61.10695818998738
 21
89.99999999992892
 31
0.0
 12
59.44029152332073
 22
99.99999999992892
 32
0.0
 13
59.44029152332073
 23
99.99999999992892
 33
0.0
  0
MTEXT
  5
66D
330
64B
100
AcDbEntity
  8
Array
 62
     0
100
AcDbMText
 10
38.60695818998738
 20
79.99999999992891
 30
0.0
 40
10.0
 41
0.0
 71
     5
 72
     1
  1
\A1;10
 73
     1
 44
1.0
  0
POINT
  5
66E
330
64B
100
AcDbEntity
  8
Defpoints
 62
     0
100
AcDbPoint
 10
162.3019604196061
 20
110.0000000000848
 30
0.0
  0
POINT
  5
66F
330
64B
100
AcDbEntity
  8
Defpoints
 62
     0
100
AcDbPoint
 10
179.9999999999971
 20
99.99999999992887
 30
0.0
  0
POINT
  5
670
330
64B
100
AcDbEntity
  8
Defpoints
 62
     0
100
AcDbPoint
 10
59.44029152332073
 20
99.99999999992892
 30
0.0
  0
ENDBLK
  5
658
330
64B
100
AcDbEntity
  8
0
100
AcDbBlockEnd
  0
BLOCK
  5
6C9
330
6BE
100
AcDbEntity
  8
0
100
AcDbBlockBegin
  2
*D17
 70
     1
 10
0.0
 20
0.0
 30
0.0
  3
*D17
  1

  0
LINE
  5
738
330
6BE
100
AcDbEntity
  8
Array
 62
     0
370
    -2
100
AcDbLine
 10
83.0
 20
612.9999999999998
 30
0.0
 11
83.0
 21
603.0363713059383
 31
0.0
  0
LINE
  5
739
330
6BE
100
AcDbEntity
  8
Array
 62
     0
370
    -2
100
AcDbLine
 10
280.0
 20
612.9999999999998
 30
0.0
 11
280.0
 21
603.0363713059383
 31
0.0
  0
LINE
  5
73A
330
6BE
100
AcDbEntity
  8
Array
 62
     0
370
    -2
100
AcDbLine
 10
93.0
 20
593.0363713059383
 30
0.0
 11
124.7107652517337
 21
593.0363713059383
 31
0.0
  0
LINE
  5
73B
330
6BE
100
AcDbEntity
  8
Array
 62
     0
370
    -2
100
AcDbLine
 10
270.0
 20
593.0363713059383
 30
0.0
 11
158.044098585067
 21
593.0363713059383
 31
0.0
  0
SOLID
  5
73C
330
6BE
100
AcDbEntity
  8
Array
 62
     0
100
AcDbTrace
 10
93.0
 20
594.703037972605
 30
0.0
 11
93.0
 21
591.3697046392717
 31
0.0
 12
83.0
 22
593.0363713059383
 32
0.0
 13
83.0
 23
593.0363713059383
 33
0.0
  0
SOLID
  5
73D
330
6BE
100
AcDbEntity
  8
Array
 62
     0
100
AcDbTrace
 10
270.0
 20
594.703037972605
 30
0.0
 11
270.0
 21
591.3697046392717
 31
0.0
 12
280.0
 22
593.0363713059383
 32
0.0
 13
280.0
 23
593.0363713059383
 33
0.0
  0
MTEXT
  5
73E
330
6BE
100
AcDbEntity
  8
Array
 62
     0
100
AcDbMText
 10
141.3774319184003
 20
593.0363713059383
 30
0.0
 40
10.0
 41
0.0
 71
     5
 72
     1
  1
\A1;197
 73
     1
 44
1.0
  0
POINT
  5
73F
330
6BE
100
AcDbEntity
  8
Defpoints
 62
     0
100
AcDbPoint
 10
83.0
 20
592.9999999999997
 30
0.0
  0
POINT
  5
740
330
6BE
100
AcDbEntity
  8
Defpoints
 62
     0
100
AcDbPoint
 10
280.0
 20
592.9999999999997
 30
0.0
  0
POINT
  5
741
330
6BE
100
AcDbEntity
  8
Defpoints
 62
     0
100
AcDbPoint
 10
280.0
 20
593.0363713059383
 30
0.0
  0
ENDBLK
  5
6CA
330
6BE
100
AcDbEntity
  8
0
100
AcDbBlockEnd
  0
BLOCK
  5
6F1
330
6E6
100
AcDbEntity
  8
0
100
AcDbBlockBegin
  2
*D18
 70
     1
 10
0.0
 20
0.0
 30
0.0
  3
*D18
  1

  0
LINE
  5
6F4
330
6E6
100
AcDbEntity
  8
0
 62
     0
370
    -2
100
AcDbLine
 10
379.9999999999998
 20
592.9999999999997
 30
0.0
 11
457.874436437543
 21
592.9999999999997
 31
0.0
  0
LINE
  5
6F5
330
6E6
100
AcDbEntity
  8
0
 62
     0
370
    -2
100
AcDbLine
 10
379.9999999999998
 20
-0.0000000000000057
 30
0.0
 11
457.8744364375428
 21
-0.0000000000000277
 31
0.0
  0
LINE
  5
6F6
330
6E6
100
AcDbEntity
  8
0
 62
     0
370
    -2
100
AcDbLine
 10
447.874436437543
 20
582.9999999999997
 30
0.0
 11
447.8744364375429
 21
306.4999999999999
 31
0.0
  0
LINE
  5
6F7
330
6E6
100
AcDbEntity
  8
0
 62
     0
370
    -2
100
AcDbLine
 10
447.8744364375429
 20
9.999999999999975
 30
0.0
 11
447.8744364375429
 21
286.4999999999998
 31
0.0
  0
SOLID
  5
6F8
330
6E6
100
AcDbEntity
  8
0
 62
     0
100
AcDbTrace
 10
446.2077697708763
 20
582.9999999999997
 30
0.0
 11
449.5411031042096
 21
582.9999999999997
 31
0.0
 12
447.874436437543
 22
592.9999999999997
 32
0.0
 13
447.874436437543
 23
592.9999999999997
 33
0.0
  0
SOLID
  5
6F9
330
6E6
100
AcDbEntity
  8
0
 62
     0
100
AcDbTrace
 10
446.2077697708762
 20
9.999999999999975
 30
0.0
 11
449.5411031042095
 21
9.999999999999975
 31
0.0
 12
447.8744364375429
 22
-0.0000000000000249
 32
0.0
 13
447.8744364375429
 23
-0.0000000000000249
 33
0.0
  0
MTEXT
  5
6FA
330
6E6
100
AcDbEntity
  8
0
 62
     0
100
AcDbMText
 10
447.8744364375429
 20
296.4999999999999
 30
0.0
 40
10.0
 41
0.0
 71
     5
 72
     1
  1
\A1;593
 73
     1
 44
1.0
  0
POINT
  5
6FB
330
6E6
100
AcDbEntity
  8
Defpoints
 62
     0
100
AcDbPoint
 10
359.9999999999998
 20
592.9999999999997
 30
0.0
  0
POINT
  5
6FC
330
6E6
100
AcDbEntity
  8
Defpoints
 62
     0
100
AcDbPoint
 10
359.9999999999998
 20
0.0
 30
0.0
  0
POINT
  5
6FD
330
6E6
100
AcDbEntity
  8
Defpoints
 62
     0
100
AcDbPoint
 10
447.8744364375429
 20
-0.0000000000000249
 30
0.0
  0
ENDBLK
  5
6F2
330
6E6
100
AcDbEntity
  8
0
100
AcDbBlockEnd
  0
BLOCK
  5
70B
330
700
100
AcDbEntity
  8
0
100
AcDbBlockBegin
  2
*D19
 70
     1
 10
0.0
 20
0.0
 30
0.0
  3
*D19
  1

  0
LINE
  5
70E
330
700
100
AcDbEntity
  8
0
 62
     0
370
    -2
100
AcDbLine
 10
359.9999999999998
 20
-20.0
 30
0.0
 11
359.9999999999998
 21
-44.67687784966687
 31
0.0
  0
LINE
  5
70F
330
700
100
AcDbEntity
  8
0
 62
     0
370
    -2
100
AcDbLine
 10
-0.0000000000000012
 20
-20.0
 30
0.0
 11
-0.0000000000000027
 21
-44.67687784966687
 31
0.0
  0
LINE
  5
710
330
700
100
AcDbEntity
  8
0
 62
     0
370
    -2
100
AcDbLine
 10
349.9999999999999
 20
-34.67687784966688
 30
0.0
 11
197.4999999999999
 21
-34.67687784966688
 31
0.0
  0
LINE
  5
711
330
700
100
AcDbEntity
  8
0
 62
     0
370
    -2
100
AcDbLine
 10
9.999999999999998
 20
-34.67687784966688
 30
0.0
 11
162.4999999999999
 21
-34.67687784966688
 31
0.0
  0
SOLID
  5
712
330
700
100
AcDbEntity
  8
0
 62
     0
100
AcDbTrace
 10
349.9999999999999
 20
-33.01021118300021
 30
0.0
 11
349.9999999999999
 21
-36.34354451633354
 31
0.0
 12
359.9999999999998
 22
-34.67687784966688
 32
0.0
 13
359.9999999999998
 23
-34.67687784966688
 33
0.0
  0
SOLID
  5
713
330
700
100
AcDbEntity
  8
0
 62
     0
100
AcDbTrace
 10
9.999999999999998
 20
-33.01021118300021
 30
0.0
 11
9.999999999999998
 21
-36.34354451633354
 31
0.0
 12
-0.0000000000000021
 22
-34.67687784966688
 32
0.0
 13
-0.0000000000000021
 23
-34.67687784966688
 33
0.0
  0
MTEXT
  5
714
330
700
100
AcDbEntity
  8
0
 62
     0
100
AcDbMText
 10
179.9999999999999
 20
-34.67687784966688
 30
0.0
 40
10.0
 41
0.0
 71
     5
 72
     1
  1
\A1;360
 73
     1
 44
1.0
  0
POINT
  5
715
330
700
100
AcDbEntity
  8
Defpoints
 62
     0
100
AcDbPoint
 10
359.9999999999998
 20
0.0
 30
0.0
  0
POINT
  5
716
330
700
100
AcDbEntity
  8
Defpoints
 62
     0
100
AcDbPoint
 10
0.0
 20
0.0
 30
0.0
  0
POINT
  5
717
330
700
100
AcDbEntity
  8
Defpoints
 62
     0
100
AcDbPoint
 10
-0.0000000000000021
 20
-34.67687784966688
 30
0.0
  0
ENDBLK
  5
70C
330
700
100
AcDbEntity
  8
0
100
AcDbBlockEnd
  0
ENDSEC
  0
SECTION
  2
ENTITIES
  0
LINE
  5
5E
102
{ACAD_REACTORS
330
6FE
102
}
330
1F
100
AcDbEntity
  8
CK_LEVEL_1
  6
Continuous
 62
     3
100
AcDbLine
 10
359.9999999999998
 20
0.0
 30
0.0
 11
359.9999999999998
 21
592.9999999999997
 31
0.0
  0
LINE
  5
5F
102
{ACAD_REACTORS
330
5CF
102
}
330
1F
100
AcDbEntity
  8
CK_LEVEL_1
  6
Continuous
 62
     3
100
AcDbLine
 10
0.0
 20
0.0
 30
0.0
 11
0.0
 21
592.9999999999997
 31
0.0
  0
LINE
  5
60
102
{ACAD_REACTORS
330
6FE
330
718
102
}
330
1F
100
AcDbEntity
  8
CK_LEVEL_1
  6
Continuous
 62
     3
100
AcDbLine
 10
0.0
 20
0.0
 30
0.0
 11
359.9999999999998
 21
0.0
 31
0.0
  0
ARC
  5
61
102
{ACAD_REACTORS
330
239
102
}
330
1F
100
AcDbEntity
  8
CK_LEVEL_2
  6
Continuous
 62
     3
100
AcDbCircle
 10
-1681.139252204
 20
405.1998330725998
 30
0.0
 40
1958.6608578137
100
AcDbArc
 50
358.6776732815025
 51
359.7298377832994
  0
LINE
  5
62
330
1F
100
AcDbEntity
  8
CK_LEVEL_2
  6
Continuous
 62
     3
100
AcDbLine
 10
85.37109165079982
 20
405.1553773708
 30
0.0
 11
86.0
 21
360.0
 31
0.0
  0
ARC
  5
63
330
1F
100
AcDbEntity
  8
CK_LEVEL_2
  6
Continuous
 62
     3
100
AcDbCircle
 10
291.8108625625994
 20
250.0355891048999
 30
0.0
 40
191.5016185190999
100
AcDbArc
 50
197.3275219141013
 51
202.8336541779036
  0
ARC
  5
64
330
1F
100
AcDbEntity
  8
CK_LEVEL_2
  6
Continuous
 62
     3
100
AcDbCircle
 10
116.1351523588995
 20
238.5010741077
 30
0.0
 40
143.2815569761
100
AcDbArc
 50
335.8977654988062
 51
341.484326161302
  0
ARC
  5
65
330
1F
100
AcDbEntity
  8
CK_LEVEL_2
  6
Continuous
 62
     3
100
AcDbCircle
 10
296.3865519023996
 20
288.0629130688999
 30
0.0
 40
222.9014999583
100
AcDbArc
 50
229.6354634268954
 51
233.8828827520066
  0
ARC
  5
66
330
1F
100
AcDbEntity
  8
CK_LEVEL_2
  6
Continuous
 62
     3
100
AcDbCircle
 10
290.0999788749999
 20
240.0739782397999
 30
0.0
 40
185.7298705056998
100
AcDbArc
 50
207.2614916283011
 51
213.6900675260065
  0
ARC
  5
67
330
1F
100
AcDbEntity
  8
CK_LEVEL_2
  6
Continuous
 62
     3
100
AcDbCircle
 10
202.4031115194997
 20
177.4941596771999
 30
0.0
 40
77.7865927544
100
AcDbArc
 50
222.4423807124899
 51
229.6354634268954
  0
ARC
  5
68
102
{ACAD_REACTORS
330
2BF
102
}
330
1F
100
AcDbEntity
  8
CK_LEVEL_2
  6
Continuous
 62
     3
100
AcDbCircle
 10
219.0091323976997
 20
192.6800805881999
 30
0.0
 40
100.2893064424
100
AcDbArc
 50
213.6900675260065
 51
222.4423807124899
  0
ARC
  5
69
330
1F
100
AcDbEntity
  8
CK_LEVEL_2
  6
Continuous
 62
     3
100
AcDbCircle
 10
388.1658578182996
 20
290.6061134230998
 30
0.0
 40
296.0494666757
100
AcDbArc
 50
202.8336541779036
 51
207.2614916283011
  0
ARC
  5
6A
330
1F
100
AcDbEntity
  8
CK_LEVEL_2
  6
Continuous
 62
     3
100
AcDbCircle
 10
-46.05582591620009
 20
297.7047152792998
 30
0.0
 40
315.2094748645
100
AcDbArc
 50
329.0362434679054
 51
333.0810410380022
  0
ARC
  5
6B
330
1F
100
AcDbEntity
  8
CK_LEVEL_2
  6
Continuous
 62
     3
100
AcDbCircle
 10
184.4277963320996
 20
150.4574577897998
 30
0.0
 40
41.34042342439999
100
AcDbArc
 50
310.3645365731043
 51
321.9898832085916
  0
ARC
  5
6C
330
1F
100
AcDbEntity
  8
CK_LEVEL_2
  6
Continuous
 62
     3
100
AcDbCircle
 10
148.3662308538995
 20
177.5980603798998
 30
0.0
 40
84.9066164088
100
AcDbArc
 50
295.2011236454905
 51
304.9451001796048
  0
ARC
  5
6D
330
1F
100
AcDbEntity
  8
CK_LEVEL_2
  6
Continuous
 62
     3
100
AcDbCircle
 10
217.7640368350997
 20
180.3121662014999
 30
0.0
 40
89.5158810708
100
AcDbArc
 50
233.8828827520066
 51
241.9275130640899
  0
ARC
  5
6E
330
1F
100
AcDbEntity
  8
CK_LEVEL_2
  6
Continuous
 62
     3
100
AcDbCircle
 10
181.1898254231996
 20
111.7355198040999
 30
0.0
 40
11.7956818205
100
AcDbArc
 50
241.9275130640899
 51
264.2107532861895
  0
ARC
  5
6F
102
{ACAD_REACTORS
330
665
102
}
330
1F
100
AcDbEntity
  8
CK_LEVEL_2
  6
Continuous
 62
     3
100
AcDbCircle
 10
180.8655408181998
 20
108.5370267058
 30
0.0
 40
8.580791681699999
100
AcDbArc
 50
264.2107532861895
 51
295.2011236454905
  0
ARC
  5
70
330
1F
100
AcDbEntity
  8
CK_LEVEL_2
  6
Continuous
 62
     3
100
AcDbCircle
 10
88.33035397329968
 20
263.5132723296
 30
0.0
 40
189.7194503424
100
AcDbArc
 50
304.9451001796048
 51
310.3645365731043
  0
ARC
  5
71
102
{ACAD_REACTORS
330
2BF
102
}
330
1F
100
AcDbEntity
  8
CK_LEVEL_2
  6
Continuous
 62
     3
100
AcDbCircle
 10
135.0965010819999
 20
189.0133190804
 30
0.0
 40
103.9513739913999
100
AcDbArc
 50
321.9898832085916
 51
329.0362434679054
  0
ARC
  5
72
330
1F
100
AcDbEntity
  8
CK_LEVEL_2
  6
Continuous
 62
     3
100
AcDbCircle
 10
-267.2585055787001
 20
410.0192895007999
 30
0.0
 40
563.2925034506
100
AcDbArc
 50
333.0810410380022
 51
335.8977654988062
  0
ARC
  5
73
330
1F
100
AcDbEntity
  8
CK_LEVEL_2
  6
Continuous
 62
     3
100
AcDbCircle
 10
1167.304470611699
 20
424.2099759025999
 30
0.0
 40
1085.699417131799
100
AcDbArc
 50
187.5238204385976
 51
189.340473104701
  0
ARC
  5
74
330
1F
100
AcDbEntity
  8
CK_LEVEL_2
  6
Continuous
 62
     3
100
AcDbCircle
 10
503.5315459823995
 20
315.0314797212999
 30
0.0
 40
413.0074820683
100
AcDbArc
 50
189.340473104701
 51
193.2985703305
  0
ARC
  5
75
330
1F
100
AcDbEntity
  8
CK_LEVEL_2
  6
Continuous
 62
     3
100
AcDbCircle
 10
489.5244148047999
 20
311.7207032610999
 30
0.0
 40
398.6143946790999
100
AcDbArc
 50
193.2985703305
 51
197.3275219141013
  0
ARC
  5
76
330
1F
100
AcDbEntity
  8
CK_LEVEL_2
  6
Continuous
 62
     3
100
AcDbCircle
 10
1645.983576620399
 20
416.4557464319
 30
0.0
 40
1561.2584306417
100
AcDbArc
 50
182.9108378262033
 51
184.2409194204027
  0
ARC
  5
77
330
1F
100
AcDbEntity
  8
CK_LEVEL_2
  6
Continuous
 62
     3
100
AcDbCircle
 10
420.6114355899997
 20
325.5901410883998
 30
0.0
 40
332.5219079291999
100
AcDbArc
 50
184.2409194204027
 51
187.5238204385976
  0
ARC
  5
78
330
1F
100
AcDbEntity
  8
CK_LEVEL_2
  6
Continuous
 62
     3
100
AcDbCircle
 10
705.9784481765996
 20
368.6588754941
 30
0.0
 40
620.0389119469
100
AcDbArc
 50
180.8001645359018
 51
182.9108378262033
  0
ARC
  5
79
330
1F
100
AcDbEntity
  8
CK_LEVEL_2
  6
Continuous
 62
     3
100
AcDbCircle
 10
-1188.1493408802
 20
503.3425090694999
 30
0.0
 40
1475.4127571085
100
AcDbArc
 50
350.0339194126993
 51
351.4163785198983
  0
ARC
  5
7A
330
1F
100
AcDbEntity
  8
CK_LEVEL_2
  6
Continuous
 62
     3
100
AcDbCircle
 10
-319.4079977887
 20
350.6902055264998
 30
0.0
 40
593.3615981763998
100
AcDbArc
 50
346.7014296694998
 51
350.0339194126993
  0
ARC
  5
7B
330
1F
100
AcDbEntity
  8
CK_LEVEL_2
  6
Continuous
 62
     3
100
AcDbCircle
 10
22.33615203659974
 20
269.9143155677999
 30
0.0
 40
242.2009393056999
100
AcDbArc
 50
341.484326161302
 51
346.7014296694998
  0
ARC
  5
7C
330
1F
100
AcDbEntity
  8
CK_LEVEL_2
  6
Continuous
 62
     3
100
AcDbCircle
 10
-691.8965145428001
 20
399.8747521087999
 30
0.0
 40
969.9492256718
100
AcDbArc
 50
354.1492158767037
 51
356.1214754971998
  0
ARC
  5
7D
330
1F
100
AcDbEntity
  8
CK_LEVEL_2
  6
Continuous
 62
     3
100
AcDbCircle
 10
-102.6501393067001
 20
339.4935729829999
 30
0.0
 40
377.6172431472999
100
AcDbArc
 50
351.4163785198983
 51
354.1492158767037
  0
ARC
  5
7E
330
1F
100
AcDbEntity
  8
CK_LEVEL_2
  6
Continuous
 62
     3
100
AcDbCircle
 10
-300.3002438465002
 20
373.3258524005999
 30
0.0
 40
577.4540240464
100
AcDbArc
 50
356.1214754971998
 51
358.6776732815025
  0
LINE
  5
7F
102
{ACAD_REACTORS
330
6D6
102
}
330
1F
100
AcDbEntity
  8
CK_LEVEL_1
  6
Continuous
 62
     3
100
AcDbLine
 10
280.0
 20
592.9999999999997
 30
0.0
 11
359.9999999999998
 21
592.9999999999997
 31
0.0
  0
ARC
  5
80
330
1F
100
AcDbEntity
  8
CK_LEVEL_2
  6
Continuous
 62
     3
100
AcDbCircle
 10
-3439.318700324999
 20
535.9080089118999
 30
0.0
 40
3719.7568589941
100
AcDbArc
 50
0.0
 51
0.8794280652012529
  0
LINE
  5
81
330
1F
100
AcDbEntity
  8
CK_LEVEL_2
  6
Continuous
 62
     3
100
AcDbLine
 10
83.0
 20
592.9999999999997
 30
0.0
 11
83.61237752440002
 21
535.6855796243999
 31
0.0
  0
LINE
  5
82
330
1F
100
AcDbEntity
  8
CK_LEVEL_2
  6
Continuous
 62
     3
100
AcDbLine
 10
84.00999999999976
 20
503.9999999999999
 30
0.0
 11
85.0
 21
432.0
 31
0.0
  0
LINE
  5
83
330
1F
100
AcDbEntity
  8
CK_LEVEL_2
  6
Continuous
 62
     3
100
AcDbLine
 10
85.0
 20
432.0
 30
0.0
 11
85.37109165079982
 21
405.1553773708
 31
0.0
  0
ARC
  5
84
330
1F
100
AcDbEntity
  8
CK_LEVEL_2
  6
Continuous
 62
     3
100
AcDbCircle
 10
13280.431262053
 20
685.4472321341001
 30
0.0
 40
13197.6686283455
100
AcDbArc
 50
180.6501826214006
 51
180.7877518703025
  0
LINE
  5
85
330
1F
100
AcDbEntity
  8
CK_LEVEL_2
  6
Continuous
 62
     3
100
AcDbLine
 10
278.3811446889998
 20
446.6501960782998
 30
0.0
 11
280.0
 21
503.9999999999999
 31
0.0
  0
ARC
  5
86
102
{ACAD_REACTORS
330
239
102
}
330
1F
100
AcDbEntity
  8
CK_LEVEL_2
  6
Continuous
 62
     3
100
AcDbCircle
 10
2243.9116863907
 20
386.6922164517
 30
0.0
 40
1966.433714605599
100
AcDbArc
 50
178.6797548800007
 51
179.7298377832015
  0
ARC
  5
87
330
1F
100
AcDbEntity
  8
CK_LEVEL_2
  6
Continuous
 62
     3
100
AcDbCircle
 10
2746.3226249381
 20
375.1133005657
 30
0.0
 40
2468.9780633602
100
AcDbArc
 50
178.3396628906002
 51
178.6797548800007
  0
ARC
  5
88
330
1F
100
AcDbEntity
  8
CK_LEVEL_2
  6
Continuous
 62
     3
100
AcDbCircle
 10
-881.5986644654001
 20
535.9080089118999
 30
0.0
 40
1162.0368231344
100
AcDbArc
 50
358.4265351822015
 51
0.0
  0
LINE
  5
89
102
{ACAD_REACTORS
330
6D6
102
}
330
1F
100
AcDbEntity
  8
CK_LEVEL_1
  6
Continuous
 62
     3
100
AcDbLine
 10
0.0
 20
592.9999999999997
 30
0.0
 11
83.0
 21
592.9999999999997
 31
0.0
  0
DIMENSION
  5
19E
330
1F
100
AcDbEntity
  8
Dimensions
100
AcDbDimension
  2
*D1
 10
232.4048178534245
 20
149.9999999999289
 30
0.0
 11
163.4751116733614
 21
149.9999999999289
 31
0.0
 70
   160
 71
     5
 42
104.7310168011736
  3
Hull templates
100
AcDbAlignedDimension
 13
127.6738010522509
 23
149.9999999999288
 33
0.0
 14
232.4048178534245
 24
149.9999999999289
 34
0.0
100
AcDbRotatedDimension
  0
DIMENSION
  5
1B8
330
1F
100
AcDbEntity
  8
Dimensions
100
AcDbDimension
  2
*D2
 10
254.2268234299084
 20
199.9999999999289
 30
0.0
 11
152.4262697201884
 21
199.9999999999289
 31
0.0
 70
   160
 71
     5
 42
147.3405145531702
  3
Hull templates
100
AcDbAlignedDimension
 13
106.8863088767382
 23
199.9999999999289
 33
0.0
 14
254.2268234299084
 24
199.9999999999289
 34
0.0
100
AcDbRotatedDimension
  0
DIMENSION
  5
1D2
330
1F
100
AcDbEntity
  8
Dimensions
100
AcDbDimension
  2
*D3
 10
265.3500147910842
 20
249.9999999999288
 30
0.0
 11
138.6152203922611
 21
249.9999999999288
 31
0.0
 70
   160
 71
     5
 42
169.6770613793598
  3
Hull templates
100
AcDbAlignedDimension
 13
95.67295341172439
 23
249.9999999999289
 33
0.0
 14
265.3500147910842
 24
249.9999999999288
 34
0.0
100
AcDbRotatedDimension
  0
DIMENSION
  5
1EC
330
1F
100
AcDbEntity
  8
Dimensions
100
AcDbDimension
  2
*D4
 10
272.9999999998987
 20
301.0000000003032
 30
0.0
 11
139.9963282310236
 21
301.0000000003032
 31
0.0
 70
   160
 71
     5
 42
183.9999999998665
  3
Hull templates
100
AcDbAlignedDimension
 13
89.00000000003215
 23
301.0000000000184
 33
0.0
 14
272.9999999998987
 24
301.0000000000264
 34
0.0
100
AcDbRotatedDimension
  0
DIMENSION
  5
206
330
1F
100
AcDbEntity
  8
Dimensions
100
AcDbDimension
  2
*D5
 10
276.6824720966746
 20
349.9999999999289
 30
0.0
 11
139.9963282310236
 21
349.9999999999289
 31
0.0
 70
   160
 71
     5
 42
190.4621208365966
  3
Hull templates
100
AcDbAlignedDimension
 13
86.22035126007791
 23
349.9999999999289
 33
0.0
 14
276.6824720966746
 24
349.9999999999289
 34
0.0
100
AcDbRotatedDimension
  0
DIMENSION
  5
220
102
{ACAD_XDICTIONARY
360
22E
102
}
102
{ACAD_REACTORS
330
239
102
}
330
1F
100
AcDbEntity
  8
Dimensions
100
AcDbDimension
  2
*D6
 10
277.499831901387
 20
399.9999999999289
 30
0.0
 11
139.9963282310236
 21
399.9999999999289
 31
0.0
 70
   160
 71
     5
 42
192.0569379523759
  3
Hull templates
100
AcDbAlignedDimension
 13
85.44289394901104
 23
399.9999999999289
 33
0.0
 14
277.499831901387
 24
395.9643500599101
 34
0.0
100
AcDbRotatedDimension
  0
DIMENSION
  5
23A
330
1F
100
AcDbEntity
  8
Dimensions
100
AcDbDimension
  2
*D7
 10
278.381144690396
 20
449.9999999999287
 30
0.0
 11
141.3774319184003
 21
449.9999999999287
 31
0.0
 70
   160
 71
     5
 42
193.628644690395
  3
Hull templates
100
AcDbAlignedDimension
 13
84.75250000000093
 23
449.9999999999287
 33
0.0
 14
278.381144690396
 24
446.6501961277509
 34
0.0
100
AcDbRotatedDimension
  0
DIMENSION
  5
254
330
1F
100
AcDbEntity
  8
Dimensions
100
AcDbDimension
  2
*D8
 10
279.8870890430078
 20
499.9999999999288
 30
0.0
 11
139.9963282310236
 21
499.9999999999288
 31
0.0
 70
   160
 71
     5
 42
195.822089043007
  3
Hull templates
100
AcDbAlignedDimension
 13
84.06500000000075
 23
499.999999999929
 33
0.0
 14
279.8870890430078
 24
499.999999999929
 34
0.0
100
AcDbRotatedDimension
  0
DIMENSION
  5
26E
330
1F
100
AcDbEntity
  8
Dimensions
100
AcDbDimension
  2
*D9
 10
280.4114654021899
 20
549.9999999999288
 30
0.0
 11
142.7585356057779
 21
549.9999999999288
 31
0.0
 70
   160
 71
     5
 42
196.9520307018705
  3
Hull templates
100
AcDbAlignedDimension
 13
83.4594347003194
 23
549.9999999999287
 33
0.0
 14
280.4114654021899
 24
549.9999999999287
 34
0.0
100
AcDbRotatedDimension
  0
DIMENSION
  5
288
330
1F
100
AcDbEntity
  8
Dimensions
100
AcDbDimension
  2
*D10
 10
-56.07602487266011
 20
149.9999999999289
 30
0.0
 11
-33.57602487266014
 21
159.9999999999288
 31
0.0
 70
    32
 71
     5
 42
50.0
  3
Hull templates
100
AcDbAlignedDimension
 13
44.0205516635019
 23
99.99999999992887
 33
0.0
 14
127.6738010522509
 24
149.9999999999288
 34
0.0
 50
90.0
100
AcDbRotatedDimension
  0
DIMENSION
  5
2A6
102
{ACAD_XDICTIONARY
360
2B4
102
}
102
{ACAD_REACTORS
330
2BF
102
}
330
1F
100
AcDbEntity
  8
Dimensions
100
AcDbDimension
  2
*D11
 10
217.0000000000106
 20
125.0000000000138
 30
0.0
 11
180.9999999999615
 21
125.0000000000138
 31
0.0
 70
   160
 71
     5
 42
72.00000000009842
  3
Hull templates
100
AcDbAlignedDimension
 13
144.9999999999122
 23
125.0000000000063
 33
0.0
 14
217.0000000000106
 24
125.0000000000138
 34
0.0
100
AcDbRotatedDimension
  0
DIMENSION
  5
2CA
330
1F
100
AcDbEntity
  8
Dimensions
100
AcDbDimension
  2
*D12
 10
-18.18859181606967
 20
124.9999999999289
 30
0.0
 11
-18.18859181606969
 21
112.4999999999289
 31
0.0
 70
    32
 71
     5
 42
25.00000000000001
  3
Hull templates
100
AcDbAlignedDimension
 13
44.0205516635019
 23
99.99999999992887
 33
0.0
 14
144.9999999999833
 24
124.9999999999288
 34
0.0
 50
90.0
100
AcDbRotatedDimension
  0
DIMENSION
  5
450
330
1F
100
AcDbEntity
  8
Dimensions
100
AcDbDimension
  2
*D14
 10
199.80745950111
 20
109.9999999999288
 30
0.0
 11
223.1407928344434
 21
109.9999999999288
 31
0.0
 70
    32
 71
     5
 42
37.50549908129667
  3
Hull templates
100
AcDbAlignedDimension
 13
162.3019604198134
 23
109.9999999999288
 33
0.0
 14
199.80745950111
 24
109.9999999999288
 34
0.0
100
AcDbRotatedDimension
  0
DIMENSION
  5
5B6
102
{ACAD_XDICTIONARY
360
5C4
102
}
102
{ACAD_REACTORS
330
5CF
102
}
330
1F
100
AcDbEntity
  8
Array
100
AcDbDimension
  2
*D15
 10
-96.06433127544512
 20
99.99999999992896
 30
0.0
 11
-96.06433127544512
 21
346.4999999999644
 31
0.0
 70
    32
 71
     5
 42
493.0000000000709
  3
Hull templates
100
AcDbAlignedDimension
 13
0.0
 23
592.9999999999997
 33
0.0
 14
179.9999999999971
 24
99.99999999992887
 34
0.0
 50
90.0
100
AcDbRotatedDimension
  0
DIMENSION
  5
64A
102
{ACAD_XDICTIONARY
360
659
102
}
102
{ACAD_REACTORS
330
665
102
}
330
1F
100
AcDbEntity
  8
Array
100
AcDbDimension
  2
*D16
 10
59.44029152332073
 20
99.99999999992892
 30
0.0
 11
38.60695818998738
 21
79.99999999992891
 31
0.0
 70
   160
 71
     5
 42
10.00000000015601
  3
Hull templates
100
AcDbAlignedDimension
 13
162.3019604196061
 23
110.0000000000848
 33
0.0
 14
179.9999999999971
 24
99.99999999992887
 34
0.0
 50
90.0
100
AcDbRotatedDimension
  0
DIMENSION
  5
6BD
102
{ACAD_XDICTIONARY
360
6CB
102
}
102
{ACAD_REACTORS
330
6D6
102
}
330
1F
100
AcDbEntity
  8
Array
100
AcDbDimension
  2
*D17
 10
280.0
 20
593.0363713059383
 30
0.0
 11
141.3774319184003
 21
593.0363713059383
 31
0.0
 70
   160
 71
     5
 42
197.0
  3
Hull templates
100
AcDbAlignedDimension
 13
83.0
 23
592.9999999999997
 33
0.0
 14
280.0
 24
592.9999999999997
 34
0.0
100
AcDbRotatedDimension
  0
DIMENSION
  5
6E5
102
{ACAD_XDICTIONARY
360
6F3
102
}
102
{ACAD_REACTORS
330
6FE
102
}
330
1F
100
AcDbEntity
  8
0
100
AcDbDimension
  2
*D18
 10
447.8744364375429
 20
-0.0000000000000249
 30
0.0
 11
447.8744364375429
 21
296.4999999999999
 31
0.0
 70
    32
 71
     5
 42
592.9999999999997
  3
Hull templates
100
AcDbAlignedDimension
 13
359.9999999999998
 23
592.9999999999997
 33
0.0
 14
359.9999999999998
 24
0.0
 34
0.0
 50
90.0
100
AcDbRotatedDimension
  0
DIMENSION
  5
6FF
102
{ACAD_XDICTIONARY
360
70D
102
}
102
{ACAD_REACTORS
330
718
102
}
330
1F
100
AcDbEntity
  8
0
100
AcDbDimension
  2
*D19
 10
-0.0000000000000021
 20
-34.67687784966688
 30
0.0
 11
179.9999999999999
 21
-34.67687784966688
 31
0.0
 70
    32
 71
     5
 42
359.9999999999998
  3
Hull templates
100
AcDbAlignedDimension
 13
359.9999999999998
 23
0.0
 33
0.0
 14
0.0
 24
0.0
 34
0.0
100
AcDbRotatedDimension
  0
MTEXT
  5
71E
330
1F
100
AcDbEntity
  8
0
100
AcDbMText
 10
105.6986773809107
 20
678.0252906171146
 30
0.0
 40
15.0
 41
303.0844
 71
     1
 72
     5
  1
{\fTimes New Roman|b0|i0|c0|p18;Forestay Template}
 73
     1
 44
1.0
  0
LINE
  5
72D
330
1F
100
AcDbEntity
  8
0
  6
CENTER
100
AcDbLine
 10
179.9999999999999
 20
0.0
 30
0.0
 11
179.9999999999999
 21
630.6322128538065
 31
0.0
  0
MTEXT
  5
7B0
330
1F
100
AcDbEntity
  8
0
  6
CENTER
100
AcDbMText
 10
25.36461424270234
 20
162.688819892142
 30
0.0
 40
10.0
 41
240.3122999999999
 71
     1
 72
     5
  1
{\fTimes New Roman|b0|i0|c0|p18;SUBSEQUENT DIMENSIONS\PAT 50MM SPACING}
 11
0.0000000000000001
 21
1.0
 31
0.0
 73
     1
 44
1.0
  0
VIEWPORT
  5
19B
330
1B
100
AcDbEntity
 67
     1
  8
0
100
AcDbViewport
 10
144.727081298828
 20
100.8062472343443
 30
0.0
 40
538.6763101976438
 41
222.1517806396483
 68
     1
 69
     1
 12
144.727081298828
 22
100.8062472343443
 13
0.0
 23
0.0
 14
10.0
 24
10.0
 15
10.0
 25
10.0
 16
0.0
 26
0.0
 36
1.0
 17
0.0
 27
0.0
 37
0.0
 42
50.0
 43
0.0
 44
0.0
 45
222.1517806396483
 50
0.0
 51
0.0
 72
   100
 90
    32800
  1

281
     0
 71
     1
 74
     0
110
0.0
120
0.0
130
0.0
111
1.0
121
0.0
131
0.0
112
0.0
122
1.0
132
0.0
 79
     0
146
0.0
  0
VIEWPORT
  5
19D
330
1B
100
AcDbEntity
 67
     1
  8
Dimensions
100
AcDbViewport
 10
143.6899123191832
 20
100.8062531948089
 30
0.0
 40
229.9038597106934
 41
161.2900051116943
 68
     2
 69
     2
 12
180.0004316298583
 22
399.9694847501101
 13
0.0
 23
0.0
 14
10.0
 24
10.0
 15
10.0
 25
10.0
 16
0.0
 26
0.0
 36
1.0
 17
0.0
 27
0.0
 37
0.0
 42
50.0
 43
0.0
 44
0.0
 45
812.5295140918392
 50
0.0
 51
0.0
 72
   100
 90
    32864
  1

281
     0
 71
     1
 74
     0
110
0.0
120
0.0
130
0.0
111
1.0
121
0.0
131
0.0
112
0.0
122
1.0
132
0.0
 79
     0
146
0.0
  0
ENDSEC
  0
SECTION
  2
OBJECTS
  0
DICTIONARY
  5
C
330
0
100
AcDbDictionary
281
     1
  3
ACAD_GROUP
350
D
  3
ACAD_LAYOUT
350
1A
  3
ACAD_MLINESTYLE
350
17
  3
ACAD_PLOTSETTINGS
350
19
  3
ACAD_PLOTSTYLENAME
350
E
  3
AcDbVariableDictionary
350
8F
  3
ASE_INDEX_DICTIONARY
350
8B
  0
DICTIONARY
  5
22E
330
220
100
AcDbDictionary
280
     1
281
     1
  3
ACAD_DIMASSOC
360
239
  0
DICTIONARY
  5
2B4
330
2A6
100
AcDbDictionary
280
     1
281
     1
  3
ACAD_DIMASSOC
360
2BF
  0
DICTIONARY
  5
5C4
330
5B6
100
AcDbDictionary
280
     1
281
     1
  3
ACAD_DIMASSOC
360
5CF
  0
DICTIONARY
  5
659
330
64A
100
AcDbDictionary
280
     1
281
     1
  3
ACAD_DIMASSOC
360
665
  0
DICTIONARY
  5
6CB
330
6BD
100
AcDbDictionary
280
     1
281
     1
  3
ACAD_DIMASSOC
360
6D6
  0
DICTIONARY
  5
6F3
330
6E5
100
AcDbDictionary
280
     1
281
     1
  3
ACAD_DIMASSOC
360
6FE
  0
DICTIONARY
  5
70D
330
6FF
100
AcDbDictionary
280
     1
281
     1
  3
ACAD_DIMASSOC
360
718
  0
DICTIONARY
  5
D
102
{ACAD_REACTORS
330
C
102
}
330
C
100
AcDbDictionary
281
     1
  0
DICTIONARY
  5
1A
102
{ACAD_REACTORS
330
C
102
}
330
C
100
AcDbDictionary
281
     1
  3
Layout1
350
1E
  3
Layout2
350
26
  3
Model
350
22
  0
DICTIONARY
  5
17
102
{ACAD_REACTORS
330
C
102
}
330
C
100
AcDbDictionary
281
     1
  3
Standard
350
18
  0
DICTIONARY
  5
19
102
{ACAD_REACTORS
330
C
102
}
330
C
100
AcDbDictionary
281
     1
  0
ACDBDICTIONARYWDFLT
  5
E
102
{ACAD_REACTORS
330
C
102
}
330
C
100
AcDbDictionary
281
     1
  3
Normal
350
F
100
AcDbDictionaryWithDefault
340
F
  0
DICTIONARY
  5
8F
102
{ACAD_REACTORS
330
C
102
}
330
C
100
AcDbDictionary
281
     1
  3
DIMASSOC
350
91
  3
HIDETEXT
350
90
  0
DICTIONARY
  5
8B
102
{ACAD_REACTORS
330
C
102
}
330
C
100
AcDbDictionary
281
     1
  3
ASEBlockHierarchyIndexRecord
350
8D
1001
DCO15
1040
1767288974.582999
  0
DIMASSOC
  5
239
102
{ACAD_REACTORS
330
22E
102
}
330
22E
100
AcDbDimAssoc
330
220
 90
        2
 70
     0
 71
     0
  1
AcDbOsnapPointRef
 72
     6
331
86
 73
     2
 91
        0
 40
3.136877433393054
 10
277.4998319013441
 20
395.9643500599104
 30
0.0
332
61
 74
     2
 92
        0
 75
     0
  0
DIMASSOC
  5
2BF
102
{ACAD_REACTORS
330
2B4
102
}
330
2B4
100
AcDbDimAssoc
330
2A6
 90
        3
 70
     0
 71
     0
  1
AcDbOsnapPointRef
 72
     1
331
68
 73
     2
 91
        0
 40
3.882351939407678
 10
144.9999999999122
 20
125.0000000000063
 30
0.0
 75
     0
  1
AcDbOsnapPointRef
 72
    13
331
71
 73
     2
 91
        0
 40
5.619783620101928
 10
217.0000000000106
 20
125.0000000000138
 30
0.0
 75
     0
  0
DIMASSOC
  5
5CF
102
{ACAD_REACTORS
330
5C4
102
}
330
5C4
100
AcDbDimAssoc
330
5B6
 90
        1
 70
     0
 71
     0
  1
AcDbOsnapPointRef
 72
     1
331
5F
 73
     2
 91
        0
 40
1.0
 10
0.0
 20
592.9999999999997
 30
0.0
 75
     0
  0
DIMASSOC
  5
665
102
{ACAD_REACTORS
330
659
102
}
330
659
100
AcDbDimAssoc
330
64A
 90
        2
 70
     0
 71
     0
  1
AcDbOsnapPointRef
 72
    13
331
6F
 73
     2
 91
        0
 40
4.611347564018434
 10
179.9999999999971
 20
99.99999999992887
 30
0.0
 75
     0
  0
DIMASSOC
  5
6D6
102
{ACAD_REACTORS
330
6CB
102
}
330
6CB
100
AcDbDimAssoc
330
6BD
 90
        3
 70
     0
 71
     0
  1
AcDbOsnapPointRef
 72
     1
331
89
 73
     2
 91
        0
 40
1.0
 10
83.0
 20
592.9999999999997
 30
0.0
 75
     0
  1
AcDbOsnapPointRef
 72
    13
331
7F
 73
     2
 91
        0
 40
0.0
 10
280.0
 20
592.9999999999997
 30
0.0
 75
     0
  0
DIMASSOC
  5
6FE
102
{ACAD_REACTORS
330
6F3
102
}
330
6F3
100
AcDbDimAssoc
330
6E5
 90
        3
 70
     0
 71
     0
  1
AcDbOsnapPointRef
 72
     1
331
5E
 73
     2
 91
        0
 40
1.0
 10
359.9999999999998
 20
592.9999999999997
 30
0.0
 75
     0
  1
AcDbOsnapPointRef
 72
     1
331
60
 73
     2
 91
        0
 40
1.0
 10
359.9999999999998
 20
0.0
 30
0.0
 75
     0
  0
DIMASSOC
  5
718
102
{ACAD_REACTORS
330
70D
102
}
330
70D
100
AcDbDimAssoc
330
6FF
 90
        3
 70
     0
 71
     0
  1
AcDbOsnapPointRef
 72
     1
331
60
 73
     2
 91
        0
 40
1.0
 10
359.9999999999998
 20
0.0
 30
0.0
 75
     0
  1
AcDbOsnapPointRef
 72
    13
331
60
 73
     2
 91
        0
 40
0.0
 10
0.0
 20
0.0
 30
0.0
 75
     0
  0
LAYOUT
  5
1E
102
{ACAD_REACTORS
330
1A
102
}
330
1A
100
AcDbPlotSettings
  1

  2
Canon MP160 Printer
  4
A4
  6

 40
4.180416584014891
 41
5.831418037414549
 42
4.180404663085936
 43
3.757080078125
 44
209.9733276367186
 45
296.9683227539062
 46
0.0
 47
0.0
 48
0.0
 49
0.0
140
0.0
141
0.0
142
1.0
143
1.0
 70
   688
 72
     1
 73
     1
 74
     5
  7

 75
    16
147
1.0
148
0.0
149
0.0
100
AcDbLayout
  1
Layout1
 70
     1
 71
     1
 10
-3.757080078125
 20
-4.180416584014891
 11
293.2112426757811
 21
205.7929110527037
 12
0.0
 22
0.0
 32
0.0
 14
28.73798246383666
 24
20.1612506389618
 34
0.0
 15
258.6418421745299
 25
181.451255750656
 35
0.0
146
0.0
 13
0.0
 23
0.0
 33
0.0
 16
1.0
 26
0.0
 36
0.0
 17
0.0
 27
1.0
 37
0.0
 76
     0
330
1B
331
19B
  0
LAYOUT
  5
26
102
{ACAD_REACTORS
330
1A
102
}
330
1A
100
AcDbPlotSettings
  1

  2
Canon MP160 Printer
  4

  6

 40
0.0
 41
0.0
 42
0.0
 43
0.0
 44
0.0
 45
0.0
 46
0.0
 47
0.0
 48
0.0
 49
0.0
140
0.0
141
0.0
142
1.0
143
1.0
 70
   688
 72
     0
 73
     0
 74
     5
  7

 75
    16
147
1.0
148
0.0
149
0.0
100
AcDbLayout
  1
Layout2
 70
     1
 71
     2
 10
0.0
 20
0.0
 11
12.0
 21
9.0
 12
0.0
 22
0.0
 32
0.0
 14
0.0
 24
0.0
 34
0.0
 15
0.0
 25
0.0
 35
0.0
146
0.0
 13
0.0
 23
0.0
 33
0.0
 16
1.0
 26
0.0
 36
0.0
 17
0.0
 27
1.0
 37
0.0
 76
     0
330
23
  0
LAYOUT
  5
22
102
{ACAD_REACTORS
330
1A
102
}
330
1A
100
AcDbPlotSettings
  1

  2
Canon MP160 Printer
  4
A4
  6

 40
4.180416584014891
 41
5.831418037414549
 42
4.180404663085936
 43
3.757080078125
 44
209.9733276367186
 45
296.9683227539062
 46
0.0
 47
0.0
 48
-158.4290158250072
 49
-40.28377472348005
140
398.9657458070877
141
626.027042170499
142
1.0
143
2.764683459442367
 70
 11952
 72
     1
 73
     0
 74
     4
  7

 75
     0
147
0.3617050612375345
148
158.4290158250072
149
40.28377472348005
100
AcDbLayout
  1
Model
 70
     1
 71
     0
 10
0.0
 20
0.0
 11
12.0
 21
9.0
 12
0.0
 22
0.0
 32
0.0
 14
0.0
 24
0.0
 34
0.0
 15
0.0
 25
0.0
 35
0.0
146
0.0
 13
0.0
 23
0.0
 33
0.0
 16
1.0
 26
0.0
 36
0.0
 17
0.0
 27
1.0
 37
0.0
 76
     0
330
1F
  0
MLINESTYLE
  5
18
102
{ACAD_REACTORS
330
17
102
}
330
17
100
AcDbMlineStyle
  2
STANDARD
 70
     0
  3

 62
   256
 51
90.0
 52
90.0
 71
     2
 49
0.5
 62
   256
  6
BYLAYER
 49
-0.5
 62
   256
  6
BYLAYER
  0
ACDBPLACEHOLDER
  5
F
102
{ACAD_REACTORS
330
E
102
}
330
E
  0
DICTIONARYVAR
  5
91
102
{ACAD_REACTORS
330
8F
102
}
330
8F
100
DictionaryVariables
280
     0
  1
2
  0
DICTIONARYVAR
  5
90
102
{ACAD_REACTORS
330
8F
102
}
330
8F
100
DictionaryVariables
280
     0
  1
1
  0
XRECORD
  5
8D
102
{ACAD_REACTORS
330
8B
102
}
330
8B
100
AcDbXrecord
280
     1
  0
ENDSEC
  0
EOF
