  0
SECTION
  2
HEADER
  9
$ACADVER
  1
AC1015
  9
$ACADMAINTVER
 70
    13
  9
$DWGCODEPAGE
  3
ANSI_1252
  9
$INSBASE
 10
0.0
 20
0.0
 30
0.0
  9
$EXTMIN
 10
-100.6761476426232
 20
-44.47335480264269
 30
0.0
  9
$EXTMAX
 10
606.4855996816199
 20
636.5209097441511
 30
0.0
  9
$LIMMIN
 10
0.0
 20
0.0
  9
$LIMMAX
 10
420.0
 20
297.0
  9
$ORTHOMODE
 70
     1
  9
$REGENMODE
 70
     1
  9
$FILLMODE
 70
     1
  9
$QTEXTMODE
 70
     0
  9
$MIRRTEXT
 70
     1
  9
$LTSCALE
 40
1.0
  9
$ATTMODE
 70
     1
  9
$TEXTSIZE
 40
2.5
  9
$TRACEWID
 40
1.0
  9
$TEXTSTYLE
  7
Standard
  9
$CLAYER
  8
0
  9
$CELTYPE
  6
CENTER
  9
$CECOLOR
 62
   256
  9
$CELTSCALE
 40
1.0
  9
$DISPSILH
 70
     0
  9
$DIMSCALE
 40
1.0
  9
$DIMASZ
 40
10.0
  9
$DIMEXO
 40
20.0
  9
$DIMDLI
 40
5.0
  9
$DIMRND
 40
0.0
  9
$DIMDLE
 40
0.0
  9
$DIMEXE
 40
10.0
  9
$DIMTP
 40
0.0
  9
$DIMTM
 40
0.0
  9
$DIMTXT
 40
10.0
  9
$DIMCEN
 40
2.5
  9
$DIMTSZ
 40
0.0
  9
$DIMTOL
 70
     0
  9
$DIMLIM
 70
     0
  9
$DIMTIH
 70
     0
  9
$DIMTOH
 70
     0
  9
$DIMSE1
 70
     0
  9
$DIMSE2
 70
     0
  9
$DIMTAD
 70
     0
  9
$DIMZIN
 70
     1
  9
$DIMBLK
  1

  9
$DIMASO
 70
     1
  9
$DIMSHO
 70
     1
  9
$DIMPOST
  1

  9
$DIMAPOST
  1

  9
$DIMALT
 70
     0
  9
$DIMALTD
 70
     3
  9
$DIMALTF
 40
0.03937007874016
  9
$DIMLFAC
 40
1.0
  9
$DIMTOFL
 70
     0
  9
$DIMTVP
 40
0.0
  9
$DIMTIX
 70
     0
  9
$DIMSOXD
 70
     0
  9
$DIMSAH
 70
     0
  9
$DIMBLK1
  1

  9
$DIMBLK2
  1

  9
$DIMSTYLE
  2
ISO-25
  9
$DIMCLRD
 70
     0
  9
$DIMCLRE
 70
     0
  9
$DIMCLRT
 70
     0
  9
$DIMTFAC
 40
1.0
  9
$DIMGAP
 40
5.0
  9
$DIMJUST
 70
     0
  9
$DIMSD1
 70
     0
  9
$DIMSD2
 70
     0
  9
$DIMTOLJ
 70
     0
  9
$DIMTZIN
 70
     8
  9
$DIMALTZ
 70
     0
  9
$DIMALTTZ
 70
     0
  9
$DIMUPT
 70
     0
  9
$DIMDEC
 70
     0
  9
$DIMTDEC
 70
     0
  9
$DIMALTU
 70
     2
  9
$DIMALTTD
 70
     3
  9
$DIMTXSTY
  7
Standard
  9
$DIMAUNIT
 70
     0
  9
$DIMADEC
 70
     0
  9
$DIMALTRND
 40
0.0
  9
$DIMAZIN
 70
     0
  9
$DIMDSEP
 70
    46
  9
$DIMATFIT
 70
     3
  9
$DIMFRAC
 70
     0
  9
$DIMLDRBLK
  1

  9
$DIMLUNIT
 70
     2
  9
$DIMLWD
 70
    -2
  9
$DIMLWE
 70
    -2
  9
$DIMTMOVE
 70
     0
  9
$LUNITS
 70
     2
  9
$LUPREC
 70
     4
  9
$SKETCHINC
 40
1.0
  9
$FILLETRAD
 40
10.0
  9
$AUNITS
 70
     0
  9
$AUPREC
 70
     0
  9
$MENU
  1
.
  9
$ELEVATION
 40
0.0
  9
$PELEVATION
 40
0.0
  9
$THICKNESS
 40
0.0
  9
$LIMCHECK
 70
     0
  9
$CHAMFERA
 40
10.0
  9
$CHAMFERB
 40
10.0
  9
$CHAMFERC
 40
20.0
  9
$CHAMFERD
 40
0.0
  9
$SKPOLY
 70
     0
  9
$TDCREATE
 40
2456225.439501539
  9
$TDUCREATE
 40
2456225.002001539
  9
$TDUPDATE
 40
2456304.524363495
  9
$TDUUPDATE
 40
2456304.086863495
  9
$TDINDWG
 40
0.0258378704
  9
$TDUSRTIMER
 40
0.0258378704
  9
$USRTIMER
 70
     1
  9
$ANGBASE
 50
0.0
  9
$ANGDIR
 70
     0
  9
$PDMODE
 70
     0
  9
$PDSIZE
 40
0.0
  9
$PLINEWID
 40
0.0
  9
$SPLFRAME
 70
     0
  9
$SPLINETYPE
 70
     6
  9
$SPLINESEGS
 70
     8
  9
$HANDSEED
  5
487
  9
$SURFTAB1
 70
     6
  9
$SURFTAB2
 70
     6
  9
$SURFTYPE
 70
     6
  9
$SURFU
 70
     6
  9
$SURFV
 70
     6
  9
$UCSBASE
  2

  9
$UCSNAME
  2

  9
$UCSORG
 10
0.0
 20
0.0
 30
0.0
  9
$UCSXDIR
 10
1.0
 20
0.0
 30
0.0
  9
$UCSYDIR
 10
0.0
 20
1.0
 30
0.0
  9
$UCSORTHOREF
  2

  9
$UCSORTHOVIEW
 70
     0
  9
$UCSORGTOP
 10
0.0
 20
0.0
 30
0.0
  9
$UCSORGBOTTOM
 10
0.0
 20
0.0
 30
0.0
  9
$UCSORGLEFT
 10
0.0
 20
0.0
 30
0.0
  9
$UCSORGRIGHT
 10
0.0
 20
0.0
 30
0.0
  9
$UCSORGFRONT
 10
0.0
 20
0.0
 30
0.0
  9
$UCSORGBACK
 10
0.0
 20
0.0
 30
0.0
  9
$PUCSBASE
  2

  9
$PUCSNAME
  2

  9
$PUCSORG
 10
0.0
 20
0.0
 30
0.0
  9
$PUCSXDIR
 10
1.0
 20
0.0
 30
0.0
  9
$PUCSYDIR
 10
0.0
 20
1.0
 30
0.0
  9
$PUCSORTHOREF
  2

  9
$PUCSORTHOVIEW
 70
     0
  9
$PUCSORGTOP
 10
0.0
 20
0.0
 30
0.0
  9
$PUCSORGBOTTOM
 10
0.0
 20
0.0
 30
0.0
  9
$PUCSORGLEFT
 10
0.0
 20
0.0
 30
0.0
  9
$PUCSORGRIGHT
 10
0.0
 20
0.0
 30
0.0
  9
$PUCSORGFRONT
 10
0.0
 20
0.0
 30
0.0
  9
$PUCSORGBACK
 10
0.0
 20
0.0
 30
0.0
  9
$USERI1
 70
     0
  9
$USERI2
 70
     0
  9
$USERI3
 70
     0
  9
$USERI4
 70
     0
  9
$USERI5
 70
     0
  9
$USERR1
 40
0.0
  9
$USERR2
 40
0.0
  9
$USERR3
 40
0.0
  9
$USERR4
 40
0.0
  9
$USERR5
 40
0.0
  9
$WORLDVIEW
 70
     1
  9
$SHADEDGE
 70
     3
  9
$SHADEDIF
 70
    70
  9
$TILEMODE
 70
     1
  9
$MAXACTVP
 70
    64
  9
$PINSBASE
 10
0.0
 20
0.0
 30
0.0
  9
$PLIMCHECK
 70
     0
  9
$PEXTMIN
 10
1.000000000000000E+20
 20
1.000000000000000E+20
 30
1.000000000000000E+20
  9
$PEXTMAX
 10
-1.000000000000000E+20
 20
-1.000000000000000E+20
 30
-1.000000000000000E+20
  9
$PLIMMIN
 10
0.0
 20
0.0
  9
$PLIMMAX
 10
420.0
 20
297.0
  9
$UNITMODE
 70
     0
  9
$VISRETAIN
 70
     1
  9
$PLINEGEN
 70
     0
  9
$PSLTSCALE
 70
     1
  9
$TREEDEPTH
 70
  3020
  9
$CMLSTYLE
  2
Standard
  9
$CMLJUST
 70
     0
  9
$CMLSCALE
 40
20.0
  9
$PROXYGRAPHICS
 70
     1
  9
$MEASUREMENT
 70
     1
  9
$CELWEIGHT
370
    -1
  9
$ENDCAPS
280
     0
  9
$JOINSTYLE
280
     0
  9
$LWDISPLAY
290
     0
  9
$INSUNITS
 70
     4
  9
$HYPERLINKBASE
  1

  9
$STYLESHEET
  1

  9
$XEDIT
290
     1
  9
$CEPSNTYPE
380
     0
  9
$PSTYLEMODE
290
     1
  9
$FINGERPRINTGUID
  2
{980D071A-C52A-48F0-B764-44478E7E2F23}
  9
$VERSIONGUID
  2
{F8CDAD84-1291-4A96-A98F-F5FB0A16BDDF}
  9
$EXTNAMES
290
     1
  9
$PSVPSCALE
 40
0.0
  9
$OLESTARTUP
290
     0
  0
ENDSEC
  0
SECTION
  2
CLASSES
  0
CLASS
  1
ACDBDICTIONARYWDFLT
  2
AcDbDictionaryWithDefault
  3
AutoCAD 2000
 90
        0
280
     0
281
     0
  0
CLASS
  1
ACDBPLACEHOLDER
  2
AcDbPlaceHolder
  3
AutoCAD 2000
 90
        0
280
     0
281
     0
  0
CLASS
  1
LAYOUT
  2
AcDbLayout
  3
AutoCAD 2000
 90
        0
280
     0
281
     0
  0
CLASS
  1
DICTIONARYVAR
  2
AcDbDictionaryVar
  3
AutoCAD 2000
 90
        0
280
     0
281
     0
  0
CLASS
  1
DIMASSOC
  2
AcDbDimAssoc
  3
"AcDbDimAssoc|Product Desc:     AcDim ARX App For Dimension|Company:          Autodesk, Inc.|WEB Address:      www.autodesk.com"
 90
        0
280
     0
281
     0
  0
ENDSEC
  0
SECTION
  2
TABLES
  0
TABLE
  2
VPORT
  5
8
330
0
100
AcDbSymbolTable
 70
     5
  0
VPORT
  5
486
330
8
100
AcDbSymbolTableRecord
100
AcDbViewportTableRecord
  2
*Active
 70
     0
 10
0.0
 20
0.0
 11
1.0
 21
1.0
 12
-79.27452943288926
 22
413.3084605114231
 13
0.0
 23
0.0
 14
10.0
 24
10.0
 15
10.0
 25
10.0
 16
0.0
 26
0.0
 36
1.0
 17
0.0
 27
0.0
 37
0.0
 40
901.0138201018985
 41
2.424812030075187
 42
50.0
 43
0.0
 44
0.0
 50
0.0
 51
0.0
 71
     0
 72
   100
 73
     1
 74
     3
 75
     0
 76
     0
 77
     0
 78
     0
281
     0
 65
     1
110
0.0
120
0.0
130
0.0
111
1.0
121
0.0
131
0.0
112
0.0
122
1.0
132
0.0
 79
     0
146
0.0
  0
ENDTAB
  0
TABLE
  2
LTYPE
  5
5
330
0
100
AcDbSymbolTable
 70
     2
  0
LTYPE
  5
14
330
5
100
AcDbSymbolTableRecord
100
AcDbLinetypeTableRecord
  2
ByBlock
 70
     0
  3

 72
    65
 73
     0
 40
0.0
  0
LTYPE
  5
15
330
5
100
AcDbSymbolTableRecord
100
AcDbLinetypeTableRecord
  2
ByLayer
 70
     0
  3

 72
    65
 73
     0
 40
0.0
  0
LTYPE
  5
16
330
5
100
AcDbSymbolTableRecord
100
AcDbLinetypeTableRecord
  2
Continuous
 70
     0
  3
Solid line
 72
    65
 73
     0
 40
0.0
  0
LTYPE
  5
3F8
330
5
100
AcDbSymbolTableRecord
100
AcDbLinetypeTableRecord
  2
CENTER
 70
     0
  3
Center ____ _ ____ _ ____ _ ____ _ ____ _ ____
 72
    65
 73
     4
 40
50.8
 49
31.75
 74
     0
 49
-6.349999999999999
 74
     0
 49
6.349999999999999
 74
     0
 49
-6.349999999999999
 74
     0
  0
ENDTAB
  0
TABLE
  2
LAYER
  5
2
330
0
100
AcDbSymbolTable
 70
     5
  0
LAYER
  5
10
330
2
100
AcDbSymbolTableRecord
100
AcDbLayerTableRecord
  2
0
 70
     0
 62
     7
  6
Continuous
370
    -3
390
F
  0
LAYER
  5
2B
330
2
100
AcDbSymbolTableRecord
100
AcDbLayerTableRecord
  2
CK_LEVEL_1
 70
     0
 62
     7
  6
Continuous
370
    -3
390
F
  0
LAYER
  5
2C
330
2
100
AcDbSymbolTableRecord
100
AcDbLayerTableRecord
  2
CK_LEVEL_2
 70
     0
 62
     7
  6
Continuous
370
    -3
390
F
  0
LAYER
  5
122
330
2
100
AcDbSymbolTableRecord
100
AcDbLayerTableRecord
  2
Dimensions
 70
     0
 62
     7
  6
Continuous
370
    -3
390
F
  0
LAYER
  5
124
330
2
100
AcDbSymbolTableRecord
100
AcDbLayerTableRecord
  2
Defpoints
 70
     0
 62
     7
  6
Continuous
290
     0
370
    -3
390
F
  0
ENDTAB
  0
TABLE
  2
STYLE
  5
3
330
0
100
AcDbSymbolTable
 70
     1
  0
STYLE
  5
11
330
3
100
AcDbSymbolTableRecord
100
AcDbTextStyleTableRecord
  2
Standard
 70
     0
 40
0.0
 41
1.0
 50
0.0
 71
     0
 42
2.5
  3
txt
  4

  0
ENDTAB
  0
TABLE
  2
VIEW
  5
6
330
0
100
AcDbSymbolTable
 70
     0
  0
ENDTAB
  0
TABLE
  2
UCS
  5
7
330
0
100
AcDbSymbolTable
 70
     0
  0
ENDTAB
  0
TABLE
  2
APPID
  5
9
330
0
100
AcDbSymbolTable
 70
     2
  0
APPID
  5
12
330
9
100
AcDbSymbolTableRecord
100
AcDbRegAppTableRecord
  2
ACAD
 70
     0
  0
APPID
  5
8C
330
9
100
AcDbSymbolTableRecord
100
AcDbRegAppTableRecord
  2
DCO15
 70
     0
  0
ENDTAB
  0
TABLE
  2
DIMSTYLE
  5
A
330
0
100
AcDbSymbolTable
 70
     3
100
AcDbDimStyleTable
 71
     1
340
27
  0
DIMSTYLE
105
27
102
{ACAD_REACTORS
330
123
330
13E
330
158
330
172
330
18C
330
1A6
330
1C0
330
1DA
330
1F4
330
20E
330
228
330
25C
330
276
330
2F0
330
314
330
392
330
3B2
330
3CC
102
}
330
A
100
AcDbSymbolTableRecord
100
AcDbDimStyleTableRecord
  2
ISO-25
 70
     0
 41
10.0
 42
20.0
 43
5.0
 44
10.0
 73
     0
 74
     0
 78
     1
140
10.0
141
2.5
143
0.03937007874016
147
5.0
171
     3
271
     0
272
     0
274
     3
283
     0
284
     8
340
11
  0
DIMSTYLE
105
2D
330
A
100
AcDbSymbolTableRecord
100
AcDbDimStyleTableRecord
  2
STANDARD
 70
     0
340
11
  0
DIMSTYLE
105
3F9
330
A
100
AcDbSymbolTableRecord
100
AcDbDimStyleTableRecord
  2
Hull templates
 70
     0
 41
10.0
 42
20.0
 43
5.0
 44
10.0
140
10.0
147
5.0
271
     0
272
     0
340
11
  0
ENDTAB
  0
TABLE
  2
BLOCK_RECORD
  5
1
330
0
100
AcDbSymbolTable
 70
    20
  0
BLOCK_RECORD
  5
1F
330
1
100
AcDbSymbolTableRecord
100
AcDbBlockTableRecord
  2
*Model_Space
340
22
  0
BLOCK_RECORD
  5
1B
330
1
100
AcDbSymbolTableRecord
100
AcDbBlockTableRecord
  2
*Paper_Space
340
1E
  0
BLOCK_RECORD
  5
23
330
1
100
AcDbSymbolTableRecord
100
AcDbBlockTableRecord
  2
*Paper_Space0
340
26
  0
BLOCK_RECORD
  5
125
330
1
100
AcDbSymbolTableRecord
100
AcDbBlockTableRecord
  2
*D1
340
0
  0
BLOCK_RECORD
  5
13F
330
1
100
AcDbSymbolTableRecord
100
AcDbBlockTableRecord
  2
*D2
340
0
  0
BLOCK_RECORD
  5
159
330
1
100
AcDbSymbolTableRecord
100
AcDbBlockTableRecord
  2
*D3
340
0
  0
BLOCK_RECORD
  5
173
330
1
100
AcDbSymbolTableRecord
100
AcDbBlockTableRecord
  2
*D4
340
0
  0
BLOCK_RECORD
  5
18D
330
1
100
AcDbSymbolTableRecord
100
AcDbBlockTableRecord
  2
*D5
340
0
  0
BLOCK_RECORD
  5
1A7
330
1
100
AcDbSymbolTableRecord
100
AcDbBlockTableRecord
  2
*D6
340
0
  0
BLOCK_RECORD
  5
1C1
330
1
100
AcDbSymbolTableRecord
100
AcDbBlockTableRecord
  2
*D7
340
0
  0
BLOCK_RECORD
  5
1DB
330
1
100
AcDbSymbolTableRecord
100
AcDbBlockTableRecord
  2
*D8
340
0
  0
BLOCK_RECORD
  5
1F5
330
1
100
AcDbSymbolTableRecord
100
AcDbBlockTableRecord
  2
*D9
340
0
  0
BLOCK_RECORD
  5
20F
330
1
100
AcDbSymbolTableRecord
100
AcDbBlockTableRecord
  2
*D10
340
0
  0
BLOCK_RECORD
  5
229
330
1
100
AcDbSymbolTableRecord
100
AcDbBlockTableRecord
  2
*D11
340
0
  0
BLOCK_RECORD
  5
25D
330
1
100
AcDbSymbolTableRecord
100
AcDbBlockTableRecord
  2
*D12
340
0
  0
BLOCK_RECORD
  5
277
330
1
100
AcDbSymbolTableRecord
100
AcDbBlockTableRecord
  2
*D13
340
0
  0
BLOCK_RECORD
  5
2F1
330
1
100
AcDbSymbolTableRecord
100
AcDbBlockTableRecord
  2
*D14
340
0
  0
BLOCK_RECORD
  5
315
330
1
100
AcDbSymbolTableRecord
100
AcDbBlockTableRecord
  2
*D15
340
0
  0
BLOCK_RECORD
  5
393
330
1
100
AcDbSymbolTableRecord
100
AcDbBlockTableRecord
  2
*D16
340
0
  0
BLOCK_RECORD
  5
3B3
330
1
100
AcDbSymbolTableRecord
100
AcDbBlockTableRecord
  2
*D17
340
0
  0
BLOCK_RECORD
  5
3CD
330
1
100
AcDbSymbolTableRecord
100
AcDbBlockTableRecord
  2
*D18
340
0
  0
ENDTAB
  0
ENDSEC
  0
SECTION
  2
BLOCKS
  0
BLOCK
  5
20
330
1F
100
AcDbEntity
  8
0
100
AcDbBlockBegin
  2
*Model_Space
 70
     0
 10
0.0
 20
0.0
 30
0.0
  3
*Model_Space
  1

  0
ENDBLK
  5
21
330
1F
100
AcDbEntity
  8
0
100
AcDbBlockEnd
  0
BLOCK
  5
1C
330
1B
100
AcDbEntity
 67
     1
  8
0
100
AcDbBlockBegin
  2
*Paper_Space
 70
     0
 10
0.0
 20
0.0
 30
0.0
  3
*Paper_Space
  1

  0
ENDBLK
  5
1D
330
1B
100
AcDbEntity
 67
     1
  8
0
100
AcDbBlockEnd
  0
BLOCK
  5
24
330
23
100
AcDbEntity
  8
0
100
AcDbBlockBegin
  2
*Paper_Space0
 70
     0
 10
0.0
 20
0.0
 30
0.0
  3
*Paper_Space0
  1

  0
ENDBLK
  5
25
330
23
100
AcDbEntity
  8
0
100
AcDbBlockEnd
  0
BLOCK
  5
130
330
125
100
AcDbEntity
  8
0
100
AcDbBlockBegin
  2
*D1
 70
     1
 10
0.0
 20
0.0
 30
0.0
  3
*D1
  1

  0
LINE
  5
40C
330
125
100
AcDbEntity
  8
Dimensions
 62
     0
370
    -2
100
AcDbLine
 10
90.80632896968472
 20
521.9898560477548
 30
0.0
 11
90.80632896968472
 21
531.6022119929409
 31
0.0
  0
LINE
  5
40D
330
125
100
AcDbEntity
  8
Dimensions
 62
     0
370
    -2
100
AcDbLine
 10
442.1936720039188
 20
521.9898560477548
 30
0.0
 11
442.1936720039188
 21
531.6022119929409
 31
0.0
  0
LINE
  5
40E
330
125
100
AcDbEntity
  8
Dimensions
 62
     0
370
    -2
100
AcDbLine
 10
100.8063289696847
 20
541.6022119929409
 30
0.0
 11
170.2468413584455
 21
541.6022119929409
 31
0.0
  0
LINE
  5
40F
330
125
100
AcDbEntity
  8
Dimensions
 62
     0
370
    -2
100
AcDbLine
 10
432.1936720039189
 20
541.6022119929409
 30
0.0
 11
203.5801746917788
 21
541.6022119929409
 31
0.0
  0
SOLID
  5
410
330
125
100
AcDbEntity
  8
Dimensions
 62
     0
100
AcDbTrace
 10
100.8063289696847
 20
543.2688786596076
 30
0.0
 11
100.8063289696847
 21
539.9355453262743
 31
0.0
 12
90.80632896968472
 22
541.6022119929409
 32
0.0
 13
90.80632896968472
 23
541.6022119929409
 33
0.0
  0
SOLID
  5
411
330
125
100
AcDbEntity
  8
Dimensions
 62
     0
100
AcDbTrace
 10
432.1936720039189
 20
543.2688786596076
 30
0.0
 11
432.1936720039189
 21
539.9355453262743
 31
0.0
 12
442.1936720039188
 22
541.6022119929409
 32
0.0
 13
442.1936720039188
 23
541.6022119929409
 33
0.0
  0
MTEXT
  5
412
330
125
100
AcDbEntity
  8
Dimensions
 62
     0
100
AcDbMText
 10
186.9135080251121
 20
541.6022119929409
 30
0.0
 40
10.0
 41
0.0
 71
     5
 72
     1
  1
351
 73
     1
 44
1.0
  0
POINT
  5
413
330
125
100
AcDbEntity
  8
Defpoints
 62
     0
100
AcDbPoint
 10
90.80632896968472
 20
541.9898560477548
 30
0.0
  0
POINT
  5
414
330
125
100
AcDbEntity
  8
Defpoints
 62
     0
100
AcDbPoint
 10
442.1936720039188
 20
541.9898560477548
 30
0.0
  0
POINT
  5
415
330
125
100
AcDbEntity
  8
Defpoints
 62
     0
100
AcDbPoint
 10
442.1936720039188
 20
541.6022119929409
 30
0.0
  0
ENDBLK
  5
131
330
125
100
AcDbEntity
  8
0
100
AcDbBlockEnd
  0
BLOCK
  5
14A
330
13F
100
AcDbEntity
  8
0
100
AcDbBlockBegin
  2
*D2
 70
     1
 10
0.0
 20
0.0
 30
0.0
  3
*D2
  1

  0
LINE
  5
416
330
13F
100
AcDbEntity
  8
Dimensions
 62
     0
370
    -2
100
AcDbLine
 10
441.2208126802863
 20
471.9898560477548
 30
0.0
 11
441.2208126802863
 21
481.9178297493815
 31
0.0
  0
LINE
  5
417
330
13F
100
AcDbEntity
  8
Dimensions
 62
     0
370
    -2
100
AcDbLine
 10
91.7791882933171
 20
471.9898560477547
 30
0.0
 11
91.7791882933171
 21
481.9178297493815
 31
0.0
  0
LINE
  5
418
330
13F
100
AcDbEntity
  8
Dimensions
 62
     0
370
    -2
100
AcDbLine
 10
431.2208126802863
 20
491.9178297493815
 30
0.0
 11
205.9120224838187
 21
491.9178297493815
 31
0.0
  0
LINE
  5
419
330
13F
100
AcDbEntity
  8
Dimensions
 62
     0
370
    -2
100
AcDbLine
 10
101.7791882933171
 20
491.9178297493815
 30
0.0
 11
169.245355817152
 21
491.9178297493815
 31
0.0
  0
SOLID
  5
41A
330
13F
100
AcDbEntity
  8
Dimensions
 62
     0
100
AcDbTrace
 10
431.2208126802863
 20
493.5844964160482
 30
0.0
 11
431.2208126802863
 21
490.2511630827148
 31
0.0
 12
441.2208126802863
 22
491.9178297493815
 32
0.0
 13
441.2208126802863
 23
491.9178297493815
 33
0.0
  0
SOLID
  5
41B
330
13F
100
AcDbEntity
  8
Dimensions
 62
     0
100
AcDbTrace
 10
101.7791882933171
 20
493.5844964160482
 30
0.0
 11
101.7791882933171
 21
490.2511630827148
 31
0.0
 12
91.7791882933171
 22
491.9178297493815
 32
0.0
 13
91.7791882933171
 23
491.9178297493815
 33
0.0
  0
MTEXT
  5
41C
330
13F
100
AcDbEntity
  8
Dimensions
 62
     0
100
AcDbMText
 10
187.5786891504853
 20
491.9178297493815
 30
0.0
 40
10.0
 41
0.0
 71
     5
 72
     1
  1
349
 73
     1
 44
1.0
  0
POINT
  5
41D
330
13F
100
AcDbEntity
  8
Defpoints
 62
     0
100
AcDbPoint
 10
441.2208126802863
 20
491.9898560477547
 30
0.0
  0
POINT
  5
41E
330
13F
100
AcDbEntity
  8
Defpoints
 62
     0
100
AcDbPoint
 10
91.7791882933171
 20
491.9898560477547
 30
0.0
  0
POINT
  5
41F
330
13F
100
AcDbEntity
  8
Defpoints
 62
     0
100
AcDbPoint
 10
91.7791882933171
 20
491.9178297493815
 30
0.0
  0
ENDBLK
  5
14B
330
13F
100
AcDbEntity
  8
0
100
AcDbBlockEnd
  0
BLOCK
  5
164
330
159
100
AcDbEntity
  8
0
100
AcDbBlockBegin
  2
*D3
 70
     1
 10
0.0
 20
0.0
 30
0.0
  3
*D3
  1

  0
LINE
  5
420
330
159
100
AcDbEntity
  8
Dimensions
 62
     0
370
    -2
100
AcDbLine
 10
93.75784321270794
 20
421.9898560477548
 30
0.0
 11
93.75784321270794
 21
431.8199869328359
 31
0.0
  0
LINE
  5
421
330
159
100
AcDbEntity
  8
Dimensions
 62
     0
370
    -2
100
AcDbLine
 10
439.2319109897393
 20
421.9898560477548
 30
0.0
 11
439.2319109897393
 21
431.8199869328359
 31
0.0
  0
LINE
  5
422
330
159
100
AcDbEntity
  8
Dimensions
 62
     0
370
    -2
100
AcDbLine
 10
103.7578432127079
 20
441.8199869328359
 30
0.0
 11
167.1842691565335
 21
441.8199869328359
 31
0.0
  0
LINE
  5
423
330
159
100
AcDbEntity
  8
Dimensions
 62
     0
370
    -2
100
AcDbLine
 10
429.2319109897392
 20
441.8199869328359
 30
0.0
 11
203.8509358232002
 21
441.8199869328359
 31
0.0
  0
SOLID
  5
424
330
159
100
AcDbEntity
  8
Dimensions
 62
     0
100
AcDbTrace
 10
103.7578432127079
 20
443.4866535995026
 30
0.0
 11
103.7578432127079
 21
440.1533202661692
 31
0.0
 12
93.75784321270794
 22
441.8199869328359
 32
0.0
 13
93.75784321270794
 23
441.8199869328359
 33
0.0
  0
SOLID
  5
425
330
159
100
AcDbEntity
  8
Dimensions
 62
     0
100
AcDbTrace
 10
429.2319109897392
 20
443.4866535995026
 30
0.0
 11
429.2319109897392
 21
440.1533202661692
 31
0.0
 12
439.2319109897393
 22
441.8199869328359
 32
0.0
 13
439.2319109897393
 23
441.8199869328359
 33
0.0
  0
MTEXT
  5
426
330
159
100
AcDbEntity
  8
Dimensions
 62
     0
100
AcDbMText
 10
185.5176024898669
 20
441.8199869328359
 30
0.0
 40
10.0
 41
0.0
 71
     5
 72
     1
  1
345
 73
     1
 44
1.0
  0
POINT
  5
427
330
159
100
AcDbEntity
  8
Defpoints
 62
     0
100
AcDbPoint
 10
93.75784321270794
 20
441.9898560477548
 30
0.0
  0
POINT
  5
428
330
159
100
AcDbEntity
  8
Defpoints
 62
     0
100
AcDbPoint
 10
439.2319109897393
 20
441.9898560477548
 30
0.0
  0
POINT
  5
429
330
159
100
AcDbEntity
  8
Defpoints
 62
     0
100
AcDbPoint
 10
439.2319109897393
 20
441.8199869328359
 30
0.0
  0
ENDBLK
  5
165
330
159
100
AcDbEntity
  8
0
100
AcDbBlockEnd
  0
BLOCK
  5
17E
330
173
100
AcDbEntity
  8
0
100
AcDbBlockBegin
  2
*D4
 70
     1
 10
0.0
 20
0.0
 30
0.0
  3
*D4
  1

  0
LINE
  5
42A
330
173
100
AcDbEntity
  8
Dimensions
 62
     0
370
    -2
100
AcDbLine
 10
98.39750160056736
 20
371.9898560477548
 30
0.0
 11
98.39750160056736
 21
381.7221425126922
 31
0.0
  0
LINE
  5
42B
330
173
100
AcDbEntity
  8
Dimensions
 62
     0
370
    -2
100
AcDbLine
 10
434.6149535396775
 20
371.9898560477549
 30
0.0
 11
434.6149535396775
 21
381.7221425126922
 31
0.0
  0
LINE
  5
42C
330
173
100
AcDbEntity
  8
Dimensions
 62
     0
370
    -2
100
AcDbLine
 10
108.3975016005673
 20
391.7221425126922
 30
0.0
 11
167.8712993395476
 21
391.7221425126922
 31
0.0
  0
LINE
  5
42D
330
173
100
AcDbEntity
  8
Dimensions
 62
     0
370
    -2
100
AcDbLine
 10
424.6149535396775
 20
391.7221425126922
 30
0.0
 11
204.5379660062143
 21
391.7221425126922
 31
0.0
  0
SOLID
  5
42E
330
173
100
AcDbEntity
  8
Dimensions
 62
     0
100
AcDbTrace
 10
108.3975016005673
 20
393.3888091793589
 30
0.0
 11
108.3975016005673
 21
390.0554758460255
 31
0.0
 12
98.39750160056736
 22
391.7221425126922
 32
0.0
 13
98.39750160056736
 23
391.7221425126922
 33
0.0
  0
SOLID
  5
42F
330
173
100
AcDbEntity
  8
Dimensions
 62
     0
100
AcDbTrace
 10
424.6149535396775
 20
393.3888091793589
 30
0.0
 11
424.6149535396775
 21
390.0554758460255
 31
0.0
 12
434.6149535396775
 22
391.7221425126922
 32
0.0
 13
434.6149535396775
 23
391.7221425126922
 33
0.0
  0
MTEXT
  5
430
330
173
100
AcDbEntity
  8
Dimensions
 62
     0
100
AcDbMText
 10
186.2046326728809
 20
391.7221425126922
 30
0.0
 40
10.0
 41
0.0
 71
     5
 72
     1
  1
336
 73
     1
 44
1.0
  0
POINT
  5
431
330
173
100
AcDbEntity
  8
Defpoints
 62
     0
100
AcDbPoint
 10
98.39750160056736
 20
391.9898560477548
 30
0.0
  0
POINT
  5
432
330
173
100
AcDbEntity
  8
Defpoints
 62
     0
100
AcDbPoint
 10
434.6149535396775
 20
391.9898560477549
 30
0.0
  0
POINT
  5
433
330
173
100
AcDbEntity
  8
Defpoints
 62
     0
100
AcDbPoint
 10
434.6149535396775
 20
391.7221425126922
 30
0.0
  0
ENDBLK
  5
17F
330
173
100
AcDbEntity
  8
0
100
AcDbBlockEnd
  0
BLOCK
  5
198
330
18D
100
AcDbEntity
  8
0
100
AcDbBlockBegin
  2
*D5
 70
     1
 10
0.0
 20
0.0
 30
0.0
  3
*D5
  1

  0
LINE
  5
434
330
18D
100
AcDbEntity
  8
Dimensions
 62
     0
370
    -2
100
AcDbLine
 10
105.3861576675676
 20
361.9898560477548
 30
0.0
 11
105.3861576675676
 21
352.3105708345713
 31
0.0
  0
LINE
  5
435
330
18D
100
AcDbEntity
  8
Dimensions
 62
     0
370
    -2
100
AcDbLine
 10
427.6229273270148
 20
361.9898560477547
 30
0.0
 11
427.6229273270148
 21
352.3105708345713
 31
0.0
  0
LINE
  5
436
330
18D
100
AcDbEntity
  8
Dimensions
 62
     0
370
    -2
100
AcDbLine
 10
115.3861576675676
 20
342.3105708345713
 30
0.0
 11
171.3064424777705
 21
342.3105708345713
 31
0.0
  0
LINE
  5
437
330
18D
100
AcDbEntity
  8
Dimensions
 62
     0
370
    -2
100
AcDbLine
 10
417.6229273270148
 20
342.3105708345713
 30
0.0
 11
207.9731091444371
 21
342.3105708345713
 31
0.0
  0
SOLID
  5
438
330
18D
100
AcDbEntity
  8
Dimensions
 62
     0
100
AcDbTrace
 10
115.3861576675676
 20
343.9772375012379
 30
0.0
 11
115.3861576675676
 21
340.6439041679046
 31
0.0
 12
105.3861576675676
 22
342.3105708345713
 32
0.0
 13
105.3861576675676
 23
342.3105708345713
 33
0.0
  0
SOLID
  5
439
330
18D
100
AcDbEntity
  8
Dimensions
 62
     0
100
AcDbTrace
 10
417.6229273270148
 20
343.9772375012379
 30
0.0
 11
417.6229273270148
 21
340.6439041679046
 31
0.0
 12
427.6229273270148
 22
342.3105708345713
 32
0.0
 13
427.6229273270148
 23
342.3105708345713
 33
0.0
  0
MTEXT
  5
43A
330
18D
100
AcDbEntity
  8
Dimensions
 62
     0
100
AcDbMText
 10
189.6397758111038
 20
342.3105708345713
 30
0.0
 40
10.0
 41
0.0
 71
     5
 72
     1
  1
322
 73
     1
 44
1.0
  0
POINT
  5
43B
330
18D
100
AcDbEntity
  8
Defpoints
 62
     0
100
AcDbPoint
 10
105.3861576675676
 20
341.9898560477548
 30
0.0
  0
POINT
  5
43C
330
18D
100
AcDbEntity
  8
Defpoints
 62
     0
100
AcDbPoint
 10
427.6229273270148
 20
341.9898560477548
 30
0.0
  0
POINT
  5
43D
330
18D
100
AcDbEntity
  8
Defpoints
 62
     0
100
AcDbPoint
 10
427.6229273270148
 20
342.3105708345713
 30
0.0
  0
ENDBLK
  5
199
330
18D
100
AcDbEntity
  8
0
100
AcDbBlockEnd
  0
BLOCK
  5
1B2
330
1A7
100
AcDbEntity
  8
0
100
AcDbBlockBegin
  2
*D6
 70
     1
 10
0.0
 20
0.0
 30
0.0
  3
*D6
  1

  0
LINE
  5
43E
330
1A7
100
AcDbEntity
  8
Dimensions
 62
     0
370
    -2
100
AcDbLine
 10
114.4122548941391
 20
311.9898560477547
 30
0.0
 11
114.4122548941391
 21
302.2127264144273
 31
0.0
  0
LINE
  5
43F
330
1A7
100
AcDbEntity
  8
Dimensions
 62
     0
370
    -2
100
AcDbLine
 10
418.3075188987736
 20
311.9898560477548
 30
0.0
 11
418.3075188987736
 21
302.2127264144273
 31
0.0
  0
LINE
  5
440
330
1A7
100
AcDbEntity
  8
Dimensions
 62
     0
370
    -2
100
AcDbLine
 10
124.412254894139
 20
292.2127264144273
 30
0.0
 11
174.2008663601468
 21
292.2127264144273
 31
0.0
  0
LINE
  5
441
330
1A7
100
AcDbEntity
  8
Dimensions
 62
     0
370
    -2
100
AcDbLine
 10
408.3075188987736
 20
292.2127264144273
 30
0.0
 11
209.2008663601468
 21
292.2127264144273
 31
0.0
  0
SOLID
  5
442
330
1A7
100
AcDbEntity
  8
Dimensions
 62
     0
100
AcDbTrace
 10
124.412254894139
 20
293.879393081094
 30
0.0
 11
124.412254894139
 21
290.5460597477607
 31
0.0
 12
114.4122548941391
 22
292.2127264144273
 32
0.0
 13
114.4122548941391
 23
292.2127264144273
 33
0.0
  0
SOLID
  5
443
330
1A7
100
AcDbEntity
  8
Dimensions
 62
     0
100
AcDbTrace
 10
408.3075188987736
 20
293.879393081094
 30
0.0
 11
408.3075188987736
 21
290.5460597477607
 31
0.0
 12
418.3075188987736
 22
292.2127264144273
 32
0.0
 13
418.3075188987736
 23
292.2127264144273
 33
0.0
  0
MTEXT
  5
444
330
1A7
100
AcDbEntity
  8
Dimensions
 62
     0
100
AcDbMText
 10
191.7008663601468
 20
292.2127264144273
 30
0.0
 40
10.0
 41
0.0
 71
     5
 72
     1
  1
304
 73
     1
 44
1.0
  0
POINT
  5
445
330
1A7
100
AcDbEntity
  8
Defpoints
 62
     0
100
AcDbPoint
 10
114.4122548941391
 20
291.9898560477548
 30
0.0
  0
POINT
  5
446
330
1A7
100
AcDbEntity
  8
Defpoints
 62
     0
100
AcDbPoint
 10
418.3075188987736
 20
291.9898560477548
 30
0.0
  0
POINT
  5
447
330
1A7
100
AcDbEntity
  8
Defpoints
 62
     0
100
AcDbPoint
 10
418.3075188987736
 20
292.2127264144273
 30
0.0
  0
ENDBLK
  5
1B3
330
1A7
100
AcDbEntity
  8
0
100
AcDbBlockEnd
  0
BLOCK
  5
1CC
330
1C1
100
AcDbEntity
  8
0
100
AcDbBlockBegin
  2
*D7
 70
     1
 10
0.0
 20
0.0
 30
0.0
  3
*D7
  1

  0
LINE
  5
448
330
1C1
100
AcDbEntity
  8
Dimensions
 62
     0
370
    -2
100
AcDbLine
 10
127.4361845379317
 20
261.9898560477548
 30
0.0
 11
127.4361845379317
 21
252.114883597882
 31
0.0
  0
LINE
  5
449
330
1C1
100
AcDbEntity
  8
Dimensions
 62
     0
370
    -2
100
AcDbLine
 10
404.6697969173692
 20
261.9898560477548
 30
0.0
 11
404.6697969173692
 21
252.114883597882
 31
0.0
  0
LINE
  5
44A
330
1C1
100
AcDbEntity
  8
Dimensions
 62
     0
370
    -2
100
AcDbLine
 10
137.4361845379316
 20
242.114883597882
 30
0.0
 11
176.8026761650354
 21
242.114883597882
 31
0.0
  0
LINE
  5
44B
330
1C1
100
AcDbEntity
  8
Dimensions
 62
     0
370
    -2
100
AcDbLine
 10
394.6697969173692
 20
242.114883597882
 30
0.0
 11
213.4693428317021
 21
242.114883597882
 31
0.0
  0
SOLID
  5
44C
330
1C1
100
AcDbEntity
  8
Dimensions
 62
     0
100
AcDbTrace
 10
137.4361845379316
 20
243.7815502645486
 30
0.0
 11
137.4361845379316
 21
240.4482169312153
 31
0.0
 12
127.4361845379317
 22
242.114883597882
 32
0.0
 13
127.4361845379317
 23
242.114883597882
 33
0.0
  0
SOLID
  5
44D
330
1C1
100
AcDbEntity
  8
Dimensions
 62
     0
100
AcDbTrace
 10
394.6697969173692
 20
243.7815502645486
 30
0.0
 11
394.6697969173692
 21
240.4482169312153
 31
0.0
 12
404.6697969173692
 22
242.114883597882
 32
0.0
 13
404.6697969173692
 23
242.114883597882
 33
0.0
  0
MTEXT
  5
44E
330
1C1
100
AcDbEntity
  8
Dimensions
 62
     0
100
AcDbMText
 10
195.1360094983688
 20
242.114883597882
 30
0.0
 40
10.0
 41
0.0
 71
     5
 72
     1
  1
277
 73
     1
 44
1.0
  0
POINT
  5
44F
330
1C1
100
AcDbEntity
  8
Defpoints
 62
     0
100
AcDbPoint
 10
127.4361845379317
 20
241.9898560477549
 30
0.0
  0
POINT
  5
450
330
1C1
100
AcDbEntity
  8
Defpoints
 62
     0
100
AcDbPoint
 10
404.6697969173692
 20
241.9898560477548
 30
0.0
  0
POINT
  5
451
330
1C1
100
AcDbEntity
  8
Defpoints
 62
     0
100
AcDbPoint
 10
404.6697969173692
 20
242.114883597882
 30
0.0
  0
ENDBLK
  5
1CD
330
1C1
100
AcDbEntity
  8
0
100
AcDbBlockEnd
  0
BLOCK
  5
1E6
330
1DB
100
AcDbEntity
  8
0
100
AcDbBlockBegin
  2
*D8
 70
     1
 10
0.0
 20
0.0
 30
0.0
  3
*D8
  1

  0
LINE
  5
452
330
1DB
100
AcDbEntity
  8
Dimensions
 62
     0
370
    -2
100
AcDbLine
 10
146.9266401791238
 20
171.9898560477549
 30
0.0
 11
146.9266401791238
 21
181.856361830416
 31
0.0
  0
LINE
  5
453
330
1DB
100
AcDbEntity
  8
Dimensions
 62
     0
370
    -2
100
AcDbLine
 10
383.0999250791672
 20
209.3062955004054
 30
0.0
 11
383.0999250791672
 21
201.856361830416
 31
0.0
  0
LINE
  5
454
330
1DB
100
AcDbEntity
  8
Dimensions
 62
     0
370
    -2
100
AcDbLine
 10
156.9266401791238
 20
191.856361830416
 30
0.0
 11
187.1081172449768
 21
191.856361830416
 31
0.0
  0
LINE
  5
455
330
1DB
100
AcDbEntity
  8
Dimensions
 62
     0
370
    -2
100
AcDbLine
 10
373.0999250791672
 20
191.856361830416
 30
0.0
 11
223.7747839116435
 21
191.856361830416
 31
0.0
  0
SOLID
  5
456
330
1DB
100
AcDbEntity
  8
Dimensions
 62
     0
100
AcDbTrace
 10
156.9266401791238
 20
193.5230284970827
 30
0.0
 11
156.9266401791238
 21
190.1896951637494
 31
0.0
 12
146.9266401791238
 22
191.856361830416
 32
0.0
 13
146.9266401791238
 23
191.856361830416
 33
0.0
  0
SOLID
  5
457
330
1DB
100
AcDbEntity
  8
Dimensions
 62
     0
100
AcDbTrace
 10
373.0999250791672
 20
193.5230284970827
 30
0.0
 11
373.0999250791672
 21
190.1896951637494
 31
0.0
 12
383.0999250791672
 22
191.856361830416
 32
0.0
 13
383.0999250791672
 23
191.856361830416
 33
0.0
  0
MTEXT
  5
458
330
1DB
100
AcDbEntity
  8
Dimensions
 62
     0
100
AcDbMText
 10
205.4414505783102
 20
191.856361830416
 30
0.0
 40
10.0
 41
0.0
 71
     5
 72
     1
  1
236
 73
     1
 44
1.0
  0
POINT
  5
459
330
1DB
100
AcDbEntity
  8
Defpoints
 62
     0
100
AcDbPoint
 10
146.9266401791238
 20
191.9898560477549
 30
0.0
  0
POINT
  5
45A
330
1DB
100
AcDbEntity
  8
Defpoints
 62
     0
100
AcDbPoint
 10
383.0999250791672
 20
189.3062955004054
 30
0.0
  0
POINT
  5
45B
330
1DB
100
AcDbEntity
  8
Defpoints
 62
     0
100
AcDbPoint
 10
383.0999250791672
 20
191.856361830416
 30
0.0
  0
ENDBLK
  5
1E7
330
1DB
100
AcDbEntity
  8
0
100
AcDbBlockEnd
  0
BLOCK
  5
200
330
1F5
100
AcDbEntity
  8
0
100
AcDbBlockBegin
  2
*D9
 70
     1
 10
0.0
 20
0.0
 30
0.0
  3
*D9
  1

  0
LINE
  5
45C
330
1F5
100
AcDbEntity
  8
Dimensions
 62
     0
370
    -2
100
AcDbLine
 10
350.4290706812515
 20
161.9898560477548
 30
0.0
 11
350.4290706812515
 21
152.4447901522953
 31
0.0
  0
LINE
  5
45D
330
1F5
100
AcDbEntity
  8
Dimensions
 62
     0
370
    -2
100
AcDbLine
 10
180.1479904793569
 20
161.9898560477548
 30
0.0
 11
180.1479904793569
 21
152.4447901522953
 31
0.0
  0
LINE
  5
45E
330
1F5
100
AcDbEntity
  8
Dimensions
 62
     0
370
    -2
100
AcDbLine
 10
340.4290706812515
 20
142.4447901522953
 30
0.0
 11
240.5116018170718
 21
142.4447901522953
 31
0.0
  0
LINE
  5
45F
330
1F5
100
AcDbEntity
  8
Dimensions
 62
     0
370
    -2
100
AcDbLine
 10
190.1479904793569
 20
142.4447901522953
 30
0.0
 11
208.8449351504051
 21
142.4447901522953
 31
0.0
  0
SOLID
  5
460
330
1F5
100
AcDbEntity
  8
Dimensions
 62
     0
100
AcDbTrace
 10
340.4290706812515
 20
144.111456818962
 30
0.0
 11
340.4290706812515
 21
140.7781234856287
 31
0.0
 12
350.4290706812515
 22
142.4447901522953
 32
0.0
 13
350.4290706812515
 23
142.4447901522953
 33
0.0
  0
SOLID
  5
461
330
1F5
100
AcDbEntity
  8
Dimensions
 62
     0
100
AcDbTrace
 10
190.1479904793569
 20
144.111456818962
 30
0.0
 11
190.1479904793569
 21
140.7781234856287
 31
0.0
 12
180.1479904793569
 22
142.4447901522953
 32
0.0
 13
180.1479904793569
 23
142.4447901522953
 33
0.0
  0
MTEXT
  5
462
330
1F5
100
AcDbEntity
  8
Dimensions
 62
     0
100
AcDbMText
 10
224.6782684837385
 20
142.4447901522953
 30
0.0
 40
10.0
 41
0.0
 71
     5
 72
     1
  1
170
 73
     1
 44
1.0
  0
POINT
  5
463
330
1F5
100
AcDbEntity
  8
Defpoints
 62
     0
100
AcDbPoint
 10
350.4290706812515
 20
141.9898560477548
 30
0.0
  0
POINT
  5
464
330
1F5
100
AcDbEntity
  8
Defpoints
 62
     0
100
AcDbPoint
 10
180.1479904793569
 20
141.9898560477548
 30
0.0
  0
POINT
  5
465
330
1F5
100
AcDbEntity
  8
Defpoints
 62
     0
100
AcDbPoint
 10
180.1479904793569
 20
142.4447901522953
 30
0.0
  0
ENDBLK
  5
201
330
1F5
100
AcDbEntity
  8
0
100
AcDbBlockEnd
  0
BLOCK
  5
21A
330
20F
100
AcDbEntity
  8
0
100
AcDbBlockBegin
  2
*D10
 70
     1
 10
0.0
 20
0.0
 30
0.0
  3
*D10
  1

  0
LINE
  5
466
330
20F
100
AcDbEntity
  8
Dimensions
 62
     0
370
    -2
100
AcDbLine
 10
321.7938023999366
 20
136.9898560477549
 30
0.0
 11
321.7938023999366
 21
127.0527323730111
 31
0.0
  0
LINE
  5
467
330
20F
100
AcDbEntity
  8
Dimensions
 62
     0
370
    -2
100
AcDbLine
 10
208.6855065838435
 20
136.9898560477549
 30
0.0
 11
208.6855065838435
 21
127.0527323730111
 31
0.0
  0
LINE
  5
468
330
20F
100
AcDbEntity
  8
Dimensions
 62
     0
370
    -2
100
AcDbLine
 10
311.7938023999366
 20
117.0527323730111
 30
0.0
 11
258.2280562061537
 21
117.0527323730111
 31
0.0
  0
LINE
  5
469
330
20F
100
AcDbEntity
  8
Dimensions
 62
     0
370
    -2
100
AcDbLine
 10
218.6855065838436
 20
117.0527323730111
 30
0.0
 11
228.2280562061537
 21
117.0527323730111
 31
0.0
  0
SOLID
  5
46A
330
20F
100
AcDbEntity
  8
Dimensions
 62
     0
100
AcDbTrace
 10
311.7938023999366
 20
118.7193990396778
 30
0.0
 11
311.7938023999366
 21
115.3860657063445
 31
0.0
 12
321.7938023999366
 22
117.0527323730111
 32
0.0
 13
321.7938023999366
 23
117.0527323730111
 33
0.0
  0
SOLID
  5
46B
330
20F
100
AcDbEntity
  8
Dimensions
 62
     0
100
AcDbTrace
 10
218.6855065838436
 20
118.7193990396778
 30
0.0
 11
218.6855065838436
 21
115.3860657063445
 31
0.0
 12
208.6855065838435
 22
117.0527323730111
 32
0.0
 13
208.6855065838435
 23
117.0527323730111
 33
0.0
  0
MTEXT
  5
46C
330
20F
100
AcDbEntity
  8
Dimensions
 62
     0
100
AcDbMText
 10
243.2280562061537
 20
117.0527323730111
 30
0.0
 40
10.0
 41
0.0
 71
     5
 72
     1
  1
113
 73
     1
 44
1.0
  0
POINT
  5
46D
330
20F
100
AcDbEntity
  8
Defpoints
 62
     0
100
AcDbPoint
 10
321.7938023999366
 20
116.9898560477549
 30
0.0
  0
POINT
  5
46E
330
20F
100
AcDbEntity
  8
Defpoints
 62
     0
100
AcDbPoint
 10
208.6855065838435
 20
116.9898560477548
 30
0.0
  0
POINT
  5
46F
330
20F
100
AcDbEntity
  8
Defpoints
 62
     0
100
AcDbPoint
 10
208.6855065838435
 20
117.0527323730111
 30
0.0
  0
ENDBLK
  5
21B
330
20F
100
AcDbEntity
  8
0
100
AcDbBlockEnd
  0
BLOCK
  5
234
330
229
100
AcDbEntity
  8
0
100
AcDbBlockBegin
  2
*D11
 70
     1
 10
0.0
 20
0.0
 30
0.0
  3
*D11
  1

  0
LINE
  5
47A
330
229
100
AcDbEntity
  8
Dimensions
 62
     0
370
    -2
100
AcDbLine
 10
297.0501429583679
 20
81.98985604775486
 30
0.0
 11
297.0501429583679
 21
91.94731059534911
 31
0.0
  0
LINE
  5
47B
330
229
100
AcDbEntity
  8
Dimensions
 62
     0
370
    -2
100
AcDbLine
 10
233.6142392270279
 20
81.98985604775486
 30
0.0
 11
233.6142392270279
 21
91.94731059534911
 31
0.0
  0
LINE
  5
47C
330
229
100
AcDbEntity
  8
Dimensions
 62
     0
370
    -2
100
AcDbLine
 10
243.6142392270279
 20
101.9473105953491
 30
0.0
 11
287.0501429583679
 21
101.9473105953491
 31
0.0
  0
LINE
  5
47D
330
229
100
AcDbEntity
  8
Dimensions
 62
     0
370
    -2
100
AcDbLine
 10
297.0501429583679
 20
101.9473105953491
 30
0.0
 11
319.9543609512585
 21
101.9473105953491
 31
0.0
  0
SOLID
  5
47E
330
229
100
AcDbEntity
  8
Dimensions
 62
     0
100
AcDbTrace
 10
243.6142392270279
 20
103.6139772620157
 30
0.0
 11
243.6142392270279
 21
100.2806439286824
 31
0.0
 12
233.6142392270279
 22
101.9473105953491
 32
0.0
 13
233.6142392270279
 23
101.9473105953491
 33
0.0
  0
SOLID
  5
47F
330
229
100
AcDbEntity
  8
Dimensions
 62
     0
100
AcDbTrace
 10
287.0501429583679
 20
103.6139772620157
 30
0.0
 11
287.0501429583679
 21
100.2806439286824
 31
0.0
 12
297.0501429583679
 22
101.9473105953491
 32
0.0
 13
297.0501429583679
 23
101.9473105953491
 33
0.0
  0
MTEXT
  5
480
330
229
100
AcDbEntity
  8
Dimensions
 62
     0
100
AcDbMText
 10
333.2876942845919
 20
101.9473105953491
 30
0.0
 40
10.0
 41
0.0
 71
     5
 72
     1
  1
63
 73
     1
 44
1.0
  0
POINT
  5
481
330
229
100
AcDbEntity
  8
Defpoints
 62
     0
100
AcDbPoint
 10
297.0501429583679
 20
101.9898560477548
 30
0.0
  0
POINT
  5
482
330
229
100
AcDbEntity
  8
Defpoints
 62
     0
100
AcDbPoint
 10
233.6142392270279
 20
101.9898560477548
 30
0.0
  0
POINT
  5
483
330
229
100
AcDbEntity
  8
Defpoints
 62
     0
100
AcDbPoint
 10
233.6142392270279
 20
101.9473105953491
 30
0.0
  0
ENDBLK
  5
235
330
229
100
AcDbEntity
  8
0
100
AcDbBlockEnd
  0
BLOCK
  5
268
330
25D
100
AcDbEntity
  8
0
100
AcDbBlockBegin
  2
*D12
 70
     1
 10
0.0
 20
0.0
 30
0.0
  3
*D12
  1

  0
LINE
  5
2E6
330
25D
100
AcDbEntity
  8
Dimensions
 62
     0
370
    -2
100
AcDbLine
 10
-19.99999951319819
 20
91.98985604775485
 30
0.0
 11
-72.78103581831828
 21
91.98985604775486
 31
0.0
  0
LINE
  5
2E7
330
25D
100
AcDbEntity
  8
Dimensions
 62
     0
370
    -2
100
AcDbLine
 10
160.1479904793569
 20
141.9898560477548
 30
0.0
 11
-72.78103581831828
 21
141.9898560477549
 31
0.0
  0
LINE
  5
2E8
330
25D
100
AcDbEntity
  8
Dimensions
 62
     0
370
    -2
100
AcDbLine
 10
-62.78103581831828
 20
131.9898560477549
 30
0.0
 11
-62.78103581831829
 21
101.9898560477548
 31
0.0
  0
LINE
  5
2E9
330
25D
100
AcDbEntity
  8
Dimensions
 62
     0
370
    -2
100
AcDbLine
 10
-62.78103581831829
 20
91.98985604775486
 30
0.0
 11
-62.78103581831831
 21
47.77088767947954
 31
0.0
  0
SOLID
  5
2EA
330
25D
100
AcDbEntity
  8
Dimensions
 62
     0
100
AcDbTrace
 10
-64.44770248498496
 20
131.9898560477549
 30
0.0
 11
-61.11436915165162
 21
131.9898560477549
 31
0.0
 12
-62.78103581831828
 22
141.9898560477549
 32
0.0
 13
-62.78103581831828
 23
141.9898560477549
 33
0.0
  0
SOLID
  5
2EB
330
25D
100
AcDbEntity
  8
Dimensions
 62
     0
100
AcDbTrace
 10
-64.44770248498496
 20
101.9898560477548
 30
0.0
 11
-61.11436915165163
 21
101.9898560477548
 31
0.0
 12
-62.78103581831829
 22
91.98985604775486
 32
0.0
 13
-62.78103581831829
 23
91.98985604775486
 33
0.0
  0
MTEXT
  5
2EC
330
25D
100
AcDbEntity
  8
Dimensions
 62
     0
100
AcDbMText
 10
-62.78103581831832
 20
35.27088767947953
 30
0.0
 40
10.0
 41
0.0
 71
     5
 72
     1
  1
50
 11
0.0000000000000001
 21
1.0
 31
0.0
 73
     1
 44
1.0
  0
POINT
  5
2ED
330
25D
100
AcDbEntity
  8
Defpoints
 62
     0
100
AcDbPoint
 10
0.0000004868018095
 20
91.98985604775485
 30
0.0
  0
POINT
  5
2EE
330
25D
100
AcDbEntity
  8
Defpoints
 62
     0
100
AcDbPoint
 10
180.1479904793569
 20
141.9898560477548
 30
0.0
  0
POINT
  5
2EF
330
25D
100
AcDbEntity
  8
Defpoints
 62
     0
100
AcDbPoint
 10
-62.78103581831828
 20
141.9898560477549
 30
0.0
  0
ENDBLK
  5
269
330
25D
100
AcDbEntity
  8
0
100
AcDbBlockEnd
  0
BLOCK
  5
282
330
277
100
AcDbEntity
  8
0
100
AcDbBlockBegin
  2
*D13
 70
     1
 10
0.0
 20
0.0
 30
0.0
  3
*D13
  1

  0
LINE
  5
2DC
330
277
100
AcDbEntity
  8
Dimensions
 62
     0
370
    -2
100
AcDbLine
 10
-19.99999951319819
 20
91.98985604775485
 30
0.0
 11
-41.7920874635656
 21
91.98985604775486
 31
0.0
  0
LINE
  5
2DD
330
277
100
AcDbEntity
  8
Dimensions
 62
     0
370
    -2
100
AcDbLine
 10
188.6855065838435
 20
116.9898560477548
 30
0.0
 11
-41.79208746356559
 21
116.9898560477549
 31
0.0
  0
LINE
  5
2DE
330
277
100
AcDbEntity
  8
Dimensions
 62
     0
370
    -2
100
AcDbLine
 10
-31.7920874635656
 20
126.9898560477549
 30
0.0
 11
-31.79208746356559
 21
136.9898560477549
 31
0.0
  0
LINE
  5
2DF
330
277
100
AcDbEntity
  8
Dimensions
 62
     0
370
    -2
100
AcDbLine
 10
-31.79208746356561
 20
81.98985604775485
 30
0.0
 11
-31.79208746356561
 21
48.60422101281287
 31
0.0
  0
SOLID
  5
2E0
330
277
100
AcDbEntity
  8
Dimensions
 62
     0
100
AcDbTrace
 10
-33.45875413023226
 20
126.9898560477549
 30
0.0
 11
-30.12542079689893
 21
126.9898560477549
 31
0.0
 12
-31.7920874635656
 22
116.9898560477549
 32
0.0
 13
-31.7920874635656
 23
116.9898560477549
 33
0.0
  0
SOLID
  5
2E1
330
277
100
AcDbEntity
  8
Dimensions
 62
     0
100
AcDbTrace
 10
-33.45875413023227
 20
81.98985604775486
 30
0.0
 11
-30.12542079689894
 21
81.98985604775485
 31
0.0
 12
-31.79208746356561
 22
91.98985604775485
 32
0.0
 13
-31.79208746356561
 23
91.98985604775485
 33
0.0
  0
MTEXT
  5
2E2
330
277
100
AcDbEntity
  8
Dimensions
 62
     0
100
AcDbMText
 10
-31.79208746356562
 20
35.27088767947953
 30
0.0
 40
10.0
 41
0.0
 71
     5
 72
     1
  1
25
 11
0.0000000000000001
 21
1.0
 31
0.0
 73
     1
 44
1.0
  0
POINT
  5
2E3
330
277
100
AcDbEntity
  8
Defpoints
 62
     0
100
AcDbPoint
 10
0.0000004868018095
 20
91.98985604775485
 30
0.0
  0
POINT
  5
2E4
330
277
100
AcDbEntity
  8
Defpoints
 62
     0
100
AcDbPoint
 10
208.6855065838435
 20
116.9898560477548
 30
0.0
  0
POINT
  5
2E5
330
277
100
AcDbEntity
  8
Defpoints
 62
     0
100
AcDbPoint
 10
-31.7920874635656
 20
116.9898560477549
 30
0.0
  0
ENDBLK
  5
283
330
277
100
AcDbEntity
  8
0
100
AcDbBlockEnd
  0
BLOCK
  5
2FC
330
2F1
100
AcDbEntity
  8
0
100
AcDbBlockBegin
  2
*D14
 70
     1
 10
0.0
 20
0.0
 30
0.0
  3
*D14
  1

  0
LINE
  5
30A
330
2F1
100
AcDbEntity
  8
Dimensions
 62
     0
370
    -2
100
AcDbLine
 10
245.6529635215018
 20
91.98985604775486
 30
0.0
 11
118.4777244844189
 21
91.98985604775492
 31
0.0
  0
LINE
  5
30B
330
2F1
100
AcDbEntity
  8
Dimensions
 62
     0
370
    -2
100
AcDbLine
 10
213.6142392270278
 20
101.9898560477548
 30
0.0
 11
118.477724484419
 21
101.9898560477549
 31
0.0
  0
LINE
  5
30C
330
2F1
100
AcDbEntity
  8
Dimensions
 62
     0
370
    -2
100
AcDbLine
 10
128.477724484419
 20
111.9898560477549
 30
0.0
 11
128.477724484419
 21
121.9898560477548
 31
0.0
  0
LINE
  5
30D
330
2F1
100
AcDbEntity
  8
Dimensions
 62
     0
370
    -2
100
AcDbLine
 10
128.477724484419
 20
81.98985604775492
 30
0.0
 11
128.4777244844189
 21
60.04121597387149
 31
0.0
  0
SOLID
  5
30E
330
2F1
100
AcDbEntity
  8
Dimensions
 62
     0
100
AcDbTrace
 10
126.8110578177523
 20
111.9898560477549
 30
0.0
 11
130.1443911510856
 21
111.9898560477549
 31
0.0
 12
128.477724484419
 22
101.9898560477549
 32
0.0
 13
128.477724484419
 23
101.9898560477549
 33
0.0
  0
SOLID
  5
30F
330
2F1
100
AcDbEntity
  8
Dimensions
 62
     0
100
AcDbTrace
 10
126.8110578177523
 20
81.98985604775492
 30
0.0
 11
130.1443911510856
 21
81.98985604775492
 31
0.0
 12
128.477724484419
 22
91.98985604775492
 32
0.0
 13
128.477724484419
 23
91.98985604775492
 33
0.0
  0
MTEXT
  5
310
330
2F1
100
AcDbEntity
  8
Dimensions
 62
     0
100
AcDbMText
 10
128.4777244844189
 20
49.20788264053817
 30
0.0
 40
10.0
 41
0.0
 71
     5
 72
     1
  1
10
 11
0.0000000000000001
 21
1.0
 31
0.0
 73
     1
 44
1.0
  0
POINT
  5
311
330
2F1
100
AcDbEntity
  8
Defpoints
 62
     0
100
AcDbPoint
 10
265.6529635215017
 20
91.98985604775486
 30
0.0
  0
POINT
  5
312
330
2F1
100
AcDbEntity
  8
Defpoints
 62
     0
100
AcDbPoint
 10
233.6142392270279
 20
101.9898560477548
 30
0.0
  0
POINT
  5
313
330
2F1
100
AcDbEntity
  8
Defpoints
 62
     0
100
AcDbPoint
 10
128.477724484419
 20
101.9898560477549
 30
0.0
  0
ENDBLK
  5
2FD
330
2F1
100
AcDbEntity
  8
0
100
AcDbBlockEnd
  0
BLOCK
  5
320
330
315
100
AcDbEntity
  8
0
100
AcDbBlockBegin
  2
*D15
 70
     1
 10
0.0
 20
0.0
 30
0.0
  3
*D15
  1

  0
LINE
  5
323
330
315
100
AcDbEntity
  8
Dimensions
 62
     0
370
    -2
100
AcDbLine
 10
-19.99999951319819
 20
571.9999991242549
 30
0.0
 11
-100.676147642623
 21
571.9999991242549
 31
0.0
  0
LINE
  5
324
330
315
100
AcDbEntity
  8
Dimensions
 62
     0
370
    -2
100
AcDbLine
 10
245.6529635215018
 20
91.98985604775486
 30
0.0
 11
-100.6761476426232
 21
91.98985604775499
 31
0.0
  0
LINE
  5
325
330
315
100
AcDbEntity
  8
Dimensions
 62
     0
370
    -2
100
AcDbLine
 10
-90.67614764262307
 20
561.9999991242549
 30
0.0
 11
-90.67614764262314
 21
349.4949275860049
 31
0.0
  0
LINE
  5
326
330
315
100
AcDbEntity
  8
Dimensions
 62
     0
370
    -2
100
AcDbLine
 10
-90.67614764262318
 20
101.9898560477549
 30
0.0
 11
-90.67614764262314
 21
314.4949275860049
 31
0.0
  0
SOLID
  5
327
330
315
100
AcDbEntity
  8
Dimensions
 62
     0
100
AcDbTrace
 10
-92.34281430928975
 20
561.9999991242549
 30
0.0
 11
-89.00948097595641
 21
561.9999991242549
 31
0.0
 12
-90.67614764262307
 22
571.9999991242549
 32
0.0
 13
-90.67614764262307
 23
571.9999991242549
 33
0.0
  0
SOLID
  5
328
330
315
100
AcDbEntity
  8
Dimensions
 62
     0
100
AcDbTrace
 10
-92.34281430928986
 20
101.9898560477549
 30
0.0
 11
-89.0094809759565
 21
101.9898560477549
 31
0.0
 12
-90.67614764262319
 22
91.98985604775497
 32
0.0
 13
-90.67614764262319
 23
91.98985604775497
 33
0.0
  0
MTEXT
  5
329
330
315
100
AcDbEntity
  8
Dimensions
 62
     0
100
AcDbMText
 10
-90.67614764262319
 20
331.9949275860049
 30
0.0
 40
10.0
 41
0.0
 71
     5
 72
     1
  1
480
 11
0.0000000000000001
 21
1.0
 31
0.0
 73
     1
 44
1.0
  0
POINT
  5
32A
330
315
100
AcDbEntity
  8
Defpoints
 62
     0
100
AcDbPoint
 10
0.0000004868018095
 20
571.9999991242549
 30
0.0
  0
POINT
  5
32B
330
315
100
AcDbEntity
  8
Defpoints
 62
     0
100
AcDbPoint
 10
265.6529635215017
 20
91.98985604775486
 30
0.0
  0
POINT
  5
32C
330
315
100
AcDbEntity
  8
Defpoints
 62
     0
100
AcDbPoint
 10
-90.67614764262319
 20
91.98985604775497
 30
0.0
  0
ENDBLK
  5
321
330
315
100
AcDbEntity
  8
0
100
AcDbBlockEnd
  0
BLOCK
  5
39E
330
393
100
AcDbEntity
  8
0
100
AcDbBlockBegin
  2
*D16
 70
     1
 10
0.0
 20
0.0
 30
0.0
  3
*D16
  1

  0
LINE
  5
402
330
393
100
AcDbEntity
  8
0
 62
     0
370
    -2
100
AcDbLine
 10
91.00000048687707
 20
551.9999991254509
 30
0.0
 11
91.00000048687707
 21
561.3301511487973
 31
0.0
  0
LINE
  5
403
330
393
100
AcDbEntity
  8
0
 62
     0
370
    -2
100
AcDbLine
 10
442.0000004868017
 20
551.9999991242549
 30
0.0
 11
442.0000004868017
 21
561.3301511487973
 31
0.0
  0
LINE
  5
404
330
393
100
AcDbEntity
  8
0
 62
     0
370
    -2
100
AcDbLine
 10
101.000000486877
 20
571.3301511487973
 30
0.0
 11
168.9528942037667
 21
571.3301511487973
 31
0.0
  0
LINE
  5
405
330
393
100
AcDbEntity
  8
0
 62
     0
370
    -2
100
AcDbLine
 10
432.0000004868018
 20
571.3301511487973
 30
0.0
 11
202.2862275371
 21
571.3301511487973
 31
0.0
  0
SOLID
  5
406
330
393
100
AcDbEntity
  8
0
 62
     0
100
AcDbTrace
 10
101.000000486877
 20
572.9968178154639
 30
0.0
 11
101.000000486877
 21
569.6634844821306
 31
0.0
 12
91.00000048687707
 22
571.3301511487973
 32
0.0
 13
91.00000048687707
 23
571.3301511487973
 33
0.0
  0
SOLID
  5
407
330
393
100
AcDbEntity
  8
0
 62
     0
100
AcDbTrace
 10
432.0000004868018
 20
572.9968178154639
 30
0.0
 11
432.0000004868018
 21
569.6634844821306
 31
0.0
 12
442.0000004868017
 22
571.3301511487973
 32
0.0
 13
442.0000004868017
 23
571.3301511487973
 33
0.0
  0
MTEXT
  5
408
330
393
100
AcDbEntity
  8
0
 62
     0
100
AcDbMText
 10
185.6195608704333
 20
571.3301511487973
 30
0.0
 40
10.0
 41
0.0
 71
     5
 72
     1
  1
351
 73
     1
 44
1.0
  0
POINT
  5
409
330
393
100
AcDbEntity
  8
Defpoints
 62
     0
100
AcDbPoint
 10
91.00000048687707
 20
571.9999991254509
 30
0.0
  0
POINT
  5
40A
330
393
100
AcDbEntity
  8
Defpoints
 62
     0
100
AcDbPoint
 10
442.0000004868017
 20
571.9999991242549
 30
0.0
  0
POINT
  5
40B
330
393
100
AcDbEntity
  8
Defpoints
 62
     0
100
AcDbPoint
 10
442.0000004868017
 20
571.3301511487973
 30
0.0
  0
ENDBLK
  5
39F
330
393
100
AcDbEntity
  8
0
100
AcDbBlockEnd
  0
BLOCK
  5
3BE
330
3B3
100
AcDbEntity
  8
0
100
AcDbBlockBegin
  2
*D17
 70
     1
 10
0.0
 20
0.0
 30
0.0
  3
*D17
  1

  0
LINE
  5
3C1
330
3B3
100
AcDbEntity
  8
0
 62
     0
370
    -2
100
AcDbLine
 10
546.0000004868017
 20
571.9999991242549
 30
0.0
 11
606.4855996816199
 21
571.9999991242549
 31
0.0
  0
LINE
  5
3C2
330
3B3
100
AcDbEntity
  8
0
 62
     0
370
    -2
100
AcDbLine
 10
546.0000004868017
 20
-0.000000875745131
 30
0.0
 11
606.4855996816199
 21
-0.0000008757451481
 31
0.0
  0
LINE
  5
3C3
330
3B3
100
AcDbEntity
  8
0
 62
     0
370
    -2
100
AcDbLine
 10
596.48559968162
 20
561.9999991242549
 30
0.0
 11
596.48559968162
 21
304.3333324575882
 31
0.0
  0
LINE
  5
3C4
330
3B3
100
AcDbEntity
  8
0
 62
     0
370
    -2
100
AcDbLine
 10
596.4855996816198
 20
9.999999124254854
 30
0.0
 11
596.48559968162
 21
267.6666657909215
 31
0.0
  0
SOLID
  5
3C5
330
3B3
100
AcDbEntity
  8
0
 62
     0
100
AcDbTrace
 10
594.8189330149533
 20
561.9999991242549
 30
0.0
 11
598.1522663482865
 21
561.9999991242549
 31
0.0
 12
596.48559968162
 22
571.9999991242549
 32
0.0
 13
596.48559968162
 23
571.9999991242549
 33
0.0
  0
SOLID
  5
3C6
330
3B3
100
AcDbEntity
  8
0
 62
     0
100
AcDbTrace
 10
594.8189330149532
 20
9.999999124254856
 30
0.0
 11
598.1522663482865
 21
9.999999124254854
 31
0.0
 12
596.4855996816198
 22
-0.0000008757451453
 32
0.0
 13
596.4855996816198
 23
-0.0000008757451453
 33
0.0
  0
MTEXT
  5
3C7
330
3B3
100
AcDbEntity
  8
0
 62
     0
100
AcDbMText
 10
596.4855996816198
 20
285.9999991242549
 30
0.0
 40
10.0
 41
0.0
 71
     5
 72
     1
  1
572
 11
0.0000000000000001
 21
1.0
 31
0.0
 73
     1
 44
1.0
  0
POINT
  5
3C8
330
3B3
100
AcDbEntity
  8
Defpoints
 62
     0
100
AcDbPoint
 10
526.0000004868017
 20
571.9999991242549
 30
0.0
  0
POINT
  5
3C9
330
3B3
100
AcDbEntity
  8
Defpoints
 62
     0
100
AcDbPoint
 10
526.0000004868017
 20
-0.0000008757451253
 30
0.0
  0
POINT
  5
3CA
330
3B3
100
AcDbEntity
  8
Defpoints
 62
     0
100
AcDbPoint
 10
596.4855996816198
 20
-0.0000008757451453
 30
0.0
  0
ENDBLK
  5
3BF
330
3B3
100
AcDbEntity
  8
0
100
AcDbBlockEnd
  0
BLOCK
  5
3D8
330
3CD
100
AcDbEntity
  8
0
100
AcDbBlockBegin
  2
*D18
 70
     1
 10
0.0
 20
0.0
 30
0.0
  3
*D18
  1

  0
LINE
  5
3DB
330
3CD
100
AcDbEntity
  8
0
 62
     0
370
    -2
100
AcDbLine
 10
526.0000004868017
 20
-20.00000087574512
 30
0.0
 11
526.0000004868017
 21
-44.47335480264269
 31
0.0
  0
LINE
  5
3DC
330
3CD
100
AcDbEntity
  8
0
 62
     0
370
    -2
100
AcDbLine
 10
0.0000004868018083
 20
-20.00000087574512
 30
0.0
 11
0.0000004868018068
 21
-44.47335480264269
 31
0.0
  0
LINE
  5
3DD
330
3CD
100
AcDbEntity
  8
0
 62
     0
370
    -2
100
AcDbLine
 10
516.0000004868018
 20
-34.47335480264269
 30
0.0
 11
281.3333338201351
 21
-34.47335480264269
 31
0.0
  0
LINE
  5
3DE
330
3CD
100
AcDbEntity
  8
0
 62
     0
370
    -2
100
AcDbLine
 10
10.0000004868018
 20
-34.47335480264269
 30
0.0
 11
244.6666671534684
 21
-34.47335480264269
 31
0.0
  0
SOLID
  5
3DF
330
3CD
100
AcDbEntity
  8
0
 62
     0
100
AcDbTrace
 10
516.0000004868018
 20
-32.80668813597602
 30
0.0
 11
516.0000004868018
 21
-36.14002146930935
 31
0.0
 12
526.0000004868017
 22
-34.47335480264269
 32
0.0
 13
526.0000004868017
 23
-34.47335480264269
 33
0.0
  0
SOLID
  5
3E0
330
3CD
100
AcDbEntity
  8
0
 62
     0
100
AcDbTrace
 10
10.0000004868018
 20
-32.80668813597602
 30
0.0
 11
10.0000004868018
 21
-36.14002146930935
 31
0.0
 12
0.0000004868018074
 22
-34.47335480264269
 32
0.0
 13
0.0000004868018074
 23
-34.47335480264269
 33
0.0
  0
MTEXT
  5
3E1
330
3CD
100
AcDbEntity
  8
0
 62
     0
100
AcDbMText
 10
263.0000004868018
 20
-34.47335480264269
 30
0.0
 40
10.0
 41
0.0
 71
     5
 72
     1
  1
526
 73
     1
 44
1.0
  0
POINT
  5
3E2
330
3CD
100
AcDbEntity
  8
Defpoints
 62
     0
100
AcDbPoint
 10
526.0000004868017
 20
-0.0000008757451253
 30
0.0
  0
POINT
  5
3E3
330
3CD
100
AcDbEntity
  8
Defpoints
 62
     0
100
AcDbPoint
 10
0.0000004868018095
 20
-0.0000008757451253
 30
0.0
  0
POINT
  5
3E4
330
3CD
100
AcDbEntity
  8
Defpoints
 62
     0
100
AcDbPoint
 10
0.0000004868018074
 20
-34.47335480264269
 30
0.0
  0
ENDBLK
  5
3D9
330
3CD
100
AcDbEntity
  8
0
100
AcDbBlockEnd
  0
ENDSEC
  0
SECTION
  2
ENTITIES
  0
LINE
  5
E4
330
1F
100
AcDbEntity
  8
CK_LEVEL_1
  6
Continuous
 62
     3
100
AcDbLine
 10
0.0000004868018095
 20
571.9999991242549
 30
0.0
 11
91.00000048680181
 21
571.9999991242549
 31
0.0
  0
LINE
  5
E5
102
{ACAD_REACTORS
330
3CB
330
3E5
102
}
330
1F
100
AcDbEntity
  8
CK_LEVEL_1
  6
Continuous
 62
     3
100
AcDbLine
 10
0.0000004868018095
 20
-0.0000008757451253
 30
0.0
 11
526.0000004868017
 21
-0.0000008757451253
 31
0.0
  0
LINE
  5
E6
102
{ACAD_REACTORS
330
32D
102
}
330
1F
100
AcDbEntity
  8
CK_LEVEL_1
  6
Continuous
 62
     3
100
AcDbLine
 10
0.0000004868018095
 20
-0.0000008757451253
 30
0.0
 11
0.0000004868018095
 21
571.9999991242549
 31
0.0
  0
ARC
  5
E7
330
1F
100
AcDbEntity
  8
CK_LEVEL_2
  6
Continuous
 62
     3
100
AcDbCircle
 10
-317.2253085206982
 20
489.3170629006548
 30
0.0
 40
763.0879965673
100
AcDbArc
 50
339.172753128299
 51
342.0185703030002
  0
ARC
  5
E8
330
1F
100
AcDbEntity
  8
CK_LEVEL_2
  6
Continuous
 62
     3
100
AcDbCircle
 10
860.1100077503019
 20
486.4223529785548
 30
0.0
 40
772.3717866263999
100
AcDbArc
 50
197.6908896199996
 51
200.5738335951982
  0
LINE
  5
E9
102
{ACAD_REACTORS
330
3CB
102
}
330
1F
100
AcDbEntity
  8
CK_LEVEL_1
  6
Continuous
 62
     3
100
AcDbLine
 10
526.0000004868017
 20
-0.0000008757451253
 30
0.0
 11
526.0000004868017
 21
571.9999991242549
 31
0.0
  0
ARC
  5
EA
330
1F
100
AcDbEntity
  8
CK_LEVEL_2
  6
Continuous
 62
     3
100
AcDbCircle
 10
146.6627729933018
 20
312.8500326260549
 30
0.0
 40
266.7687797878
100
AcDbArc
 50
332.4119186343022
 51
339.172753128299
  0
ARC
  5
EB
330
1F
100
AcDbEntity
  8
CK_LEVEL_2
  6
Continuous
 62
     3
100
AcDbCircle
 10
323.1230850241018
 20
276.3725817811549
 30
0.0
 40
196.2184901685
100
AcDbArc
 50
223.830860672104
 51
231.8817279445012
  0
ARC
  5
EC
330
1F
100
AcDbEntity
  8
CK_LEVEL_2
  6
Continuous
 62
     3
100
AcDbCircle
 10
367.7145271162016
 20
299.7221788108548
 30
0.0
 40
245.6644254452999
100
AcDbArc
 50
207.5880813656977
 51
214.8051577880978
  0
ARC
  5
ED
330
1F
100
AcDbEntity
  8
CK_LEVEL_2
  6
Continuous
 62
     3
100
AcDbCircle
 10
294.2453698658018
 20
248.6499752292548
 30
0.0
 40
156.1876851952999
100
AcDbArc
 50
214.8051577880978
 51
223.830860672104
  0
ARC
  5
EE
330
1F
100
AcDbEntity
  8
CK_LEVEL_2
  6
Continuous
 62
     3
100
AcDbCircle
 10
380.4718829497017
 20
306.3881845616549
 30
0.0
 40
260.0583741922999
100
AcDbArc
 50
200.5738335951982
 51
207.5880813656977
  0
ARC
  5
EF
330
1F
100
AcDbEntity
  8
CK_LEVEL_2
  6
Continuous
 62
     3
100
AcDbCircle
 10
204.8211670748016
 20
279.7599522868549
 30
0.0
 40
200.4551346571
100
AcDbArc
 50
309.0104202113954
 51
316.9219559589029
  0
ARC
  5
F0
330
1F
100
AcDbEntity
  8
CK_LEVEL_2
  6
Continuous
 62
     3
100
AcDbCircle
 10
211.6354529139018
 20
270.7256418033549
 30
0.0
 40
189.1228031464
100
AcDbArc
 50
295.4815680775975
 51
302.2756443145961
  0
ARC
  5
F1
330
1F
100
AcDbEntity
  8
CK_LEVEL_2
  6
Continuous
 62
     3
100
AcDbCircle
 10
284.9357467733018
 20
200.3615898861548
 30
0.0
 40
110.8755761027
100
AcDbArc
 50
246.0912729723056
 51
255.2032377548938
  0
ARC
  5
F2
330
1F
100
AcDbEntity
  8
CK_LEVEL_2
  6
Continuous
 62
     3
100
AcDbCircle
 10
309.3481460540017
 20
255.4286540809548
 30
0.0
 40
171.1113362263
100
AcDbArc
 50
238.8150253413037
 51
246.0912729723056
  0
ARC
  5
F3
330
1F
100
AcDbEntity
  8
CK_LEVEL_2
  6
Continuous
 62
     3
100
AcDbCircle
 10
318.3181061404018
 20
270.2485881367548
 30
0.0
 40
188.4344603490999
100
AcDbArc
 50
231.8817279445012
 51
238.8150253413037
  0
ARC
  5
F4
330
1F
100
AcDbEntity
  8
CK_LEVEL_2
  6
Continuous
 62
     3
100
AcDbCircle
 10
265.6048798662018
 20
129.3699000729548
 30
0.0
 40
37.3806198161
100
AcDbArc
 50
271.3721424810044
 51
286.7983717812991
  0
ARC
  5
F5
102
{ACAD_REACTORS
330
309
330
32D
102
}
330
1F
100
AcDbEntity
  8
CK_LEVEL_2
  6
Continuous
 62
     3
100
AcDbCircle
 10
265.6529635215017
 20
127.3624818613548
 30
0.0
 40
35.3726258136
100
AcDbArc
 50
255.2032377548938
 51
271.3721424810044
  0
ARC
  5
F6
330
1F
100
AcDbEntity
  8
CK_LEVEL_2
  6
Continuous
 62
     3
100
AcDbCircle
 10
242.4519442600017
 20
206.0639992683548
 30
0.0
 40
117.4933109366999
100
AcDbArc
 50
286.7983717812991
 51
295.4815680775975
  0
ARC
  5
F7
330
1F
100
AcDbEntity
  8
CK_LEVEL_2
  6
Continuous
 62
     3
100
AcDbCircle
 10
209.8512592430017
 20
273.5506151155548
 30
0.0
 40
192.4640336486999
100
AcDbArc
 50
302.2756443145961
 51
309.0104202113954
  0
ARC
  5
F8
102
{ACAD_REACTORS
330
1F3
102
}
330
1F
100
AcDbEntity
  8
CK_LEVEL_2
  6
Continuous
 62
     3
100
AcDbCircle
 10
149.5187927990018
 20
311.3576979528549
 30
0.0
 40
263.5463720066999
100
AcDbArc
 50
325.6098287001981
 51
332.4119186343022
  0
ARC
  5
F9
330
1F
100
AcDbEntity
  8
CK_LEVEL_2
  6
Continuous
 62
     3
100
AcDbCircle
 10
229.7795988200018
 20
256.4221979275548
 30
0.0
 40
166.2853513141
100
AcDbArc
 50
316.9219559589029
 51
325.6098287001981
  0
ARC
  5
FA
330
1F
100
AcDbEntity
  8
CK_LEVEL_2
  6
Continuous
 62
     3
100
AcDbCircle
 10
1313.444313496902
 20
529.7628126302548
 30
0.0
 40
1222.8487069587
100
AcDbArc
 50
184.3987053549997
 51
186.0914207807995
  0
ARC
  5
FB
330
1F
100
AcDbEntity
  8
CK_LEVEL_2
  6
Continuous
 62
     3
100
AcDbCircle
 10
917.6173718810018
 20
463.5987733408549
 30
0.0
 40
821.2781560675001
100
AcDbArc
 50
188.7968125489009
 51
190.8855270547006
  0
ARC
  5
FC
330
1F
100
AcDbEntity
  8
CK_LEVEL_2
  6
Continuous
 62
     3
100
AcDbCircle
 10
361.2716036489018
 20
327.3101033944548
 30
0.0
 40
248.7722627781
100
AcDbArc
 50
192.6099395924001
 51
197.6908896199996
  0
ARC
  5
FD
330
1F
100
AcDbEntity
  8
CK_LEVEL_2
  6
Continuous
 62
     3
100
AcDbCircle
 10
1294.335882259602
 20
536.0446407213548
 30
0.0
 40
1204.8993751917
100
AcDbArc
 50
190.8855270547006
 51
192.6099395924001
  0
ARC
  5
FE
330
1F
100
AcDbEntity
  8
CK_LEVEL_2
  6
Continuous
 62
     3
100
AcDbCircle
 10
858.6609148201018
 20
481.2293619477549
 30
0.0
 40
765.4829500997999
100
AcDbArc
 50
186.0914207807995
 51
187.8064008291995
  0
ARC
  5
FF
330
1F
100
AcDbEntity
  8
CK_LEVEL_2
  6
Continuous
 62
     3
100
AcDbCircle
 10
2374.096746569301
 20
688.9907259777548
 30
0.0
 40
2295.0941897724
100
AcDbArc
 50
187.8064008291995
 51
188.7968125489009
  0
LINE
  5
100
330
1F
100
AcDbEntity
  8
CK_LEVEL_2
  6
Continuous
 62
     3
100
AcDbLine
 10
91.00000048680181
 20
522.9999991242549
 30
0.0
 11
92.32077874910169
 21
470.4356204933549
 31
0.0
  0
ARC
  5
101
330
1F
100
AcDbEntity
  8
CK_LEVEL_2
  6
Continuous
 62
     3
100
AcDbCircle
 10
883.9563562477019
 20
496.7252774571549
 30
0.0
 40
792.0919494349
100
AcDbArc
 50
182.2954543410001
 51
184.3987053549997
  0
ARC
  5
102
330
1F
100
AcDbEntity
  8
CK_LEVEL_2
  6
Continuous
 62
     3
100
AcDbCircle
 10
475.0074508761017
 20
480.3326896000548
 30
0.0
 40
382.8146300764
100
AcDbArc
 50
181.4814571708999
 51
182.2954543410001
  0
ARC
  5
103
102
{ACAD_REACTORS
330
3AB
102
}
330
1F
100
AcDbEntity
  8
CK_LEVEL_2
  6
Continuous
 62
     3
100
AcDbCircle
 10
2877.288682651501
 20
539.0128903353549
 30
0.0
 40
2786.4839439166
100
AcDbArc
 50
179.3217020808999
 51
180.0
  0
ARC
  5
104
330
1F
100
AcDbEntity
  8
CK_LEVEL_2
  6
Continuous
 62
     3
100
AcDbCircle
 10
747.4894440378018
 20
539.0128903353549
 30
0.0
 40
656.684705303
100
AcDbArc
 50
180.0
 51
181.3972642010001
  0
ARC
  5
105
330
1F
100
AcDbEntity
  8
CK_LEVEL_2
  6
Continuous
 62
     3
100
AcDbCircle
 10
-878.0954900069982
 20
538.1371769090549
 30
0.0
 40
1320.8387458475
100
AcDbArc
 50
353.9968624499
 51
355.6012946450001
  0
ARC
  5
106
330
1F
100
AcDbEntity
  8
CK_LEVEL_2
  6
Continuous
 62
     3
100
AcDbCircle
 10
-286.8181848554982
 20
450.2003635552549
 30
0.0
 40
722.5823991101999
100
AcDbArc
 50
348.7775419306004
 51
351.0671433446006
  0
ARC
  5
107
330
1F
100
AcDbEntity
  8
CK_LEVEL_2
  6
Continuous
 62
     3
100
AcDbCircle
 10
162.6405503771018
 20
333.5711262408548
 30
0.0
 40
258.5802767832
100
AcDbArc
 50
342.0185703030002
 51
346.9082877974985
  0
ARC
  5
108
330
1F
100
AcDbEntity
  8
CK_LEVEL_2
  6
Continuous
 62
     3
100
AcDbCircle
 10
-641.3787032922982
 20
520.5496727688548
 30
0.0
 40
1084.0546477559
100
AcDbArc
 50
346.9082877974985
 51
348.7775419306004
  0
ARC
  5
109
330
1F
100
AcDbEntity
  8
CK_LEVEL_2
  6
Continuous
 62
     3
100
AcDbCircle
 10
-1508.590311274198
 20
642.2426519847548
 30
0.0
 40
1959.355365114399
100
AcDbArc
 50
351.0671433446006
 51
352.1935991708003
  0
ARC
  5
10A
330
1F
100
AcDbEntity
  8
CK_LEVEL_2
  6
Continuous
 62
     3
100
AcDbCircle
 10
-324.9260256491982
 20
479.9660966974548
 30
0.0
 40
764.6190672393999
100
AcDbArc
 50
352.1935991708003
 51
353.9968624499
  0
LINE
  5
10B
330
1F
100
AcDbEntity
  8
CK_LEVEL_2
  6
Continuous
 62
     3
100
AcDbLine
 10
440.6792222245017
 20
470.4356204933549
 30
0.0
 11
442.0000004868017
 21
522.9999991242549
 31
0.0
  0
ARC
  5
10C
330
1F
100
AcDbEntity
  8
CK_LEVEL_2
  6
Continuous
 62
     3
100
AcDbCircle
 10
-327.5368956995983
 20
495.7865158084548
 30
0.0
 40
768.65368243
100
AcDbArc
 50
355.6012946450001
 51
357.7045456589999
  0
ARC
  5
10D
330
1F
100
AcDbEntity
  8
CK_LEVEL_2
  6
Continuous
 62
     3
100
AcDbCircle
 10
57.9925500961017
 20
480.3326896001548
 30
0.0
 40
382.8146300778
100
AcDbArc
 50
357.7045456589999
 51
358.5185428291
  0
LINE
  5
10E
102
{ACAD_REACTORS
330
3AB
102
}
330
1F
100
AcDbEntity
  8
CK_LEVEL_1
  6
Continuous
 62
     3
100
AcDbLine
 10
442.0000004868017
 20
571.9999991242549
 30
0.0
 11
526.0000004868017
 21
571.9999991242549
 31
0.0
  0
ARC
  5
10F
330
1F
100
AcDbEntity
  8
CK_LEVEL_2
  6
Continuous
 62
     3
100
AcDbCircle
 10
-2344.288681677398
 20
539.0128903353549
 30
0.0
 40
2786.4839439161
100
AcDbArc
 50
0.0
 51
0.678297919100039
  0
ARC
  5
110
330
1F
100
AcDbEntity
  8
CK_LEVEL_2
  6
Continuous
 62
     3
100
AcDbCircle
 10
-214.4894430640981
 20
539.0128903353549
 30
0.0
 40
656.6847053029
100
AcDbArc
 50
358.6027357989998
 51
0.0
  0
DIMENSION
  5
123
330
1F
100
AcDbEntity
  8
Dimensions
100
AcDbDimension
  2
*D1
 10
442.1936720039188
 20
541.6022119929409
 30
0.0
 11
186.9135080251121
 21
541.6022119929409
 31
0.0
 70
   160
 71
     5
 42
351.3873430342341
  3
ISO-25
100
AcDbAlignedDimension
 13
90.80632896968472
 23
541.9898560477548
 33
0.0
 14
442.1936720039188
 24
541.9898560477548
 34
0.0
100
AcDbRotatedDimension
  0
DIMENSION
  5
13E
330
1F
100
AcDbEntity
  8
Dimensions
100
AcDbDimension
  2
*D2
 10
91.7791882933171
 20
491.9178297493815
 30
0.0
 11
187.5786891504853
 21
491.9178297493815
 31
0.0
 70
   160
 71
     5
 42
349.4416243869692
  3
ISO-25
100
AcDbAlignedDimension
 13
441.2208126802863
 23
491.9898560477547
 33
0.0
 14
91.7791882933171
 24
491.9898560477547
 34
0.0
100
AcDbRotatedDimension
  0
DIMENSION
  5
158
330
1F
100
AcDbEntity
  8
Dimensions
100
AcDbDimension
  2
*D3
 10
439.2319109897393
 20
441.8199869328359
 30
0.0
 11
185.5176024898669
 21
441.8199869328359
 31
0.0
 70
   160
 71
     5
 42
345.4740677770313
  3
ISO-25
100
AcDbAlignedDimension
 13
93.75784321270794
 23
441.9898560477548
 33
0.0
 14
439.2319109897393
 24
441.9898560477548
 34
0.0
100
AcDbRotatedDimension
  0
DIMENSION
  5
172
330
1F
100
AcDbEntity
  8
Dimensions
100
AcDbDimension
  2
*D4
 10
434.6149535396775
 20
391.7221425126922
 30
0.0
 11
186.2046326728809
 21
391.7221425126922
 31
0.0
 70
   160
 71
     5
 42
336.2174519391102
  3
ISO-25
100
AcDbAlignedDimension
 13
98.39750160056736
 23
391.9898560477548
 33
0.0
 14
434.6149535396775
 24
391.9898560477549
 34
0.0
100
AcDbRotatedDimension
  0
DIMENSION
  5
18C
330
1F
100
AcDbEntity
  8
Dimensions
100
AcDbDimension
  2
*D5
 10
427.6229273270148
 20
342.3105708345713
 30
0.0
 11
189.6397758111038
 21
342.3105708345713
 31
0.0
 70
   160
 71
     5
 42
322.2367696594472
  3
ISO-25
100
AcDbAlignedDimension
 13
105.3861576675676
 23
341.9898560477548
 33
0.0
 14
427.6229273270148
 24
341.9898560477548
 34
0.0
100
AcDbRotatedDimension
  0
DIMENSION
  5
1A6
330
1F
100
AcDbEntity
  8
Dimensions
100
AcDbDimension
  2
*D6
 10
418.3075188987736
 20
292.2127264144273
 30
0.0
 11
191.7008663601468
 21
292.2127264144273
 31
0.0
 70
   160
 71
     5
 42
303.8952640046345
  3
ISO-25
100
AcDbAlignedDimension
 13
114.4122548941391
 23
291.9898560477548
 33
0.0
 14
418.3075188987736
 24
291.9898560477548
 34
0.0
100
AcDbRotatedDimension
  0
DIMENSION
  5
1C0
330
1F
100
AcDbEntity
  8
Dimensions
100
AcDbDimension
  2
*D7
 10
404.6697969173692
 20
242.114883597882
 30
0.0
 11
195.1360094983688
 21
242.114883597882
 31
0.0
 70
   160
 71
     5
 42
277.2336123794375
  3
ISO-25
100
AcDbAlignedDimension
 13
127.4361845379317
 23
241.9898560477549
 33
0.0
 14
404.6697969173692
 24
241.9898560477548
 34
0.0
100
AcDbRotatedDimension
  0
DIMENSION
  5
1DA
102
{ACAD_XDICTIONARY
360
1E8
102
}
102
{ACAD_REACTORS
330
1F3
102
}
330
1F
100
AcDbEntity
  8
Dimensions
100
AcDbDimension
  2
*D8
 10
383.0999250791672
 20
191.856361830416
 30
0.0
 11
205.4414505783102
 21
191.856361830416
 31
0.0
 70
   160
 71
     5
 42
236.1732849000433
  3
ISO-25
100
AcDbAlignedDimension
 13
146.9266401791238
 23
191.9898560477549
 33
0.0
 14
383.0999250791672
 24
189.3062955004054
 34
0.0
100
AcDbRotatedDimension
  0
DIMENSION
  5
1F4
330
1F
100
AcDbEntity
  8
Dimensions
100
AcDbDimension
  2
*D9
 10
180.1479904793569
 20
142.4447901522953
 30
0.0
 11
224.6782684837385
 21
142.4447901522953
 31
0.0
 70
   160
 71
     5
 42
170.2810802018946
  3
ISO-25
100
AcDbAlignedDimension
 13
350.4290706812515
 23
141.9898560477548
 33
0.0
 14
180.1479904793569
 24
141.9898560477548
 34
0.0
100
AcDbRotatedDimension
  0
DIMENSION
  5
20E
330
1F
100
AcDbEntity
  8
Dimensions
100
AcDbDimension
  2
*D10
 10
208.6855065838435
 20
117.0527323730111
 30
0.0
 11
243.2280562061537
 21
117.0527323730111
 31
0.0
 70
   160
 71
     5
 42
113.108295816093
  3
ISO-25
100
AcDbAlignedDimension
 13
321.7938023999366
 23
116.9898560477549
 33
0.0
 14
208.6855065838435
 24
116.9898560477548
 34
0.0
100
AcDbRotatedDimension
  0
DIMENSION
  5
228
330
1F
100
AcDbEntity
  8
Dimensions
100
AcDbDimension
  2
*D11
 10
233.6142392270279
 20
101.9473105953491
 30
0.0
 11
333.2876942845919
 21
101.9473105953491
 31
0.0
 70
   160
 71
     5
 42
63.43590373134003
  3
ISO-25
100
AcDbAlignedDimension
 13
297.0501429583679
 23
101.9898560477548
 33
0.0
 14
233.6142392270279
 24
101.9898560477548
 34
0.0
100
AcDbRotatedDimension
  0
DIMENSION
  5
25C
330
1F
100
AcDbEntity
  8
Dimensions
100
AcDbDimension
  2
*D12
 10
-62.78103581831828
 20
141.9898560477549
 30
0.0
 11
-62.78103581831832
 21
35.27088767947953
 31
0.0
 70
   160
 71
     5
 42
50.00000000000004
  3
ISO-25
100
AcDbAlignedDimension
 13
0.0000004868018095
 23
91.98985604775485
 33
0.0
 14
180.1479904793569
 24
141.9898560477548
 34
0.0
 50
90.0
100
AcDbRotatedDimension
  0
DIMENSION
  5
276
330
1F
100
AcDbEntity
  8
Dimensions
100
AcDbDimension
  2
*D13
 10
-31.7920874635656
 20
116.9898560477549
 30
0.0
 11
-31.79208746356562
 21
35.27088767947953
 31
0.0
 70
   160
 71
     5
 42
25.00000000000008
  3
ISO-25
100
AcDbAlignedDimension
 13
0.0000004868018095
 23
91.98985604775485
 33
0.0
 14
208.6855065838435
 24
116.9898560477548
 34
0.0
 50
90.0
100
AcDbRotatedDimension
  0
DIMENSION
  5
2F0
102
{ACAD_XDICTIONARY
360
2FE
102
}
102
{ACAD_REACTORS
330
309
102
}
330
1F
100
AcDbEntity
  8
Dimensions
100
AcDbDimension
  2
*D14
 10
128.477724484419
 20
101.9898560477549
 30
0.0
 11
128.4777244844189
 21
49.20788264053817
 31
0.0
 70
   160
 71
     5
 42
10.0
  3
ISO-25
100
AcDbAlignedDimension
 13
265.6529635215017
 23
91.98985604775486
 33
0.0
 14
233.6142392270279
 24
101.9898560477548
 34
0.0
 50
90.0
100
AcDbRotatedDimension
  0
DIMENSION
  5
314
102
{ACAD_XDICTIONARY
360
322
102
}
102
{ACAD_REACTORS
330
32D
102
}
330
1F
100
AcDbEntity
  8
Dimensions
100
AcDbDimension
  2
*D15
 10
-90.67614764262319
 20
91.98985604775497
 30
0.0
 11
-90.67614764262319
 21
331.9949275860049
 31
0.0
 70
    32
 71
     5
 42
480.0101430765
  3
ISO-25
100
AcDbAlignedDimension
 13
0.0000004868018095
 23
571.9999991242549
 33
0.0
 14
265.6529635215017
 24
91.98985604775486
 34
0.0
 50
90.0
100
AcDbRotatedDimension
  0
DIMENSION
  5
392
102
{ACAD_XDICTIONARY
360
3A0
102
}
102
{ACAD_REACTORS
330
3AB
102
}
330
1F
100
AcDbEntity
  8
0
100
AcDbDimension
  2
*D16
 10
442.0000004868017
 20
571.3301511487973
 30
0.0
 11
185.6195608704333
 21
571.3301511487973
 31
0.0
 70
   160
 71
     5
 42
350.9999999999247
  3
ISO-25
100
AcDbAlignedDimension
 13
91.00000048687707
 23
571.9999991254509
 33
0.0
 14
442.0000004868017
 24
571.9999991242549
 34
0.0
100
AcDbRotatedDimension
  0
DIMENSION
  5
3B2
102
{ACAD_XDICTIONARY
360
3C0
102
}
102
{ACAD_REACTORS
330
3CB
102
}
330
1F
100
AcDbEntity
  8
0
100
AcDbDimension
  2
*D17
 10
596.4855996816198
 20
-0.0000008757451453
 30
0.0
 11
596.4855996816198
 21
285.9999991242549
 31
0.0
 70
    32
 71
     5
 42
572.0000000000001
  3
ISO-25
100
AcDbAlignedDimension
 13
526.0000004868017
 23
571.9999991242549
 33
0.0
 14
526.0000004868017
 24
-0.0000008757451253
 34
0.0
 50
90.0
100
AcDbRotatedDimension
  0
DIMENSION
  5
3CC
102
{ACAD_XDICTIONARY
360
3DA
102
}
102
{ACAD_REACTORS
330
3E5
102
}
330
1F
100
AcDbEntity
  8
0
100
AcDbDimension
  2
*D18
 10
0.0000004868018074
 20
-34.47335480264269
 30
0.0
 11
263.0000004868018
 21
-34.47335480264269
 31
0.0
 70
    32
 71
     5
 42
526.0
  3
ISO-25
100
AcDbAlignedDimension
 13
526.0000004868017
 23
-0.0000008757451253
 33
0.0
 14
0.0000004868018095
 24
-0.0000008757451253
 34
0.0
100
AcDbRotatedDimension
  0
MTEXT
  5
3EA
330
1F
100
AcDbEntity
  8
0
100
AcDbMText
 10
167.8530441626385
 20
632.1625824189888
 30
0.0
 40
15.0
 41
417.7265
 71
     1
 72
     5
  1
{\fTimes New Roman|b0|i0|c0|p18;Main Beam Template}
 73
     1
 44
1.0
  0
MTEXT
  5
3FF
330
1F
100
AcDbEntity
  8
0
  6
CENTER
100
AcDbMText
 10
31.29947996173447
 20
158.8163956405808
 30
0.0
 40
10.0
 41
240.3122999999999
 71
     1
 72
     5
  1
{\fTimes New Roman|b0|i0|c0|p18;SUBSEQUENT DIMENSIONS\PAT 50MM SPACING}
 11
0.0000000000000001
 21
1.0
 31
0.0
 73
     1
 44
1.0
  0
LINE
  5
484
330
1F
100
AcDbEntity
  8
0
  6
CENTER
100
AcDbLine
 10
263.0000004868018
 20
-0.0000008757451253
 30
0.0
 11
263.0000004868018
 21
595.8778646860528
 31
0.0
  0
ENDSEC
  0
SECTION
  2
OBJECTS
  0
DICTIONARY
  5
C
330
0
100
AcDbDictionary
281
     1
  3
ACAD_GROUP
350
D
  3
ACAD_LAYOUT
350
1A
  3
ACAD_MLINESTYLE
350
17
  3
ACAD_PLOTSETTINGS
350
19
  3
ACAD_PLOTSTYLENAME
350
E
  3
AcDbVariableDictionary
350
8F
  3
ASE_INDEX_DICTIONARY
350
8B
  0
DICTIONARY
  5
1E8
330
1DA
100
AcDbDictionary
280
     1
281
     1
  3
ACAD_DIMASSOC
360
1F3
  0
DICTIONARY
  5
2FE
330
2F0
100
AcDbDictionary
280
     1
281
     1
  3
ACAD_DIMASSOC
360
309
  0
DICTIONARY
  5
322
330
314
100
AcDbDictionary
280
     1
281
     1
  3
ACAD_DIMASSOC
360
32D
  0
DICTIONARY
  5
3A0
330
392
100
AcDbDictionary
280
     1
281
     1
  3
ACAD_DIMASSOC
360
3AB
  0
DICTIONARY
  5
3C0
330
3B2
100
AcDbDictionary
280
     1
281
     1
  3
ACAD_DIMASSOC
360
3CB
  0
DICTIONARY
  5
3DA
330
3CC
100
AcDbDictionary
280
     1
281
     1
  3
ACAD_DIMASSOC
360
3E5
  0
DICTIONARY
  5
D
102
{ACAD_REACTORS
330
C
102
}
330
C
100
AcDbDictionary
281
     1
  0
DICTIONARY
  5
1A
102
{ACAD_REACTORS
330
C
102
}
330
C
100
AcDbDictionary
281
     1
  3
Layout1
350
1E
  3
Layout2
350
26
  3
Model
350
22
  0
DICTIONARY
  5
17
102
{ACAD_REACTORS
330
C
102
}
330
C
100
AcDbDictionary
281
     1
  3
Standard
350
18
  0
DICTIONARY
  5
19
102
{ACAD_REACTORS
330
C
102
}
330
C
100
AcDbDictionary
281
     1
  0
ACDBDICTIONARYWDFLT
  5
E
102
{ACAD_REACTORS
330
C
102
}
330
C
100
AcDbDictionary
281
     1
  3
Normal
350
F
100
AcDbDictionaryWithDefault
340
F
  0
DICTIONARY
  5
8F
102
{ACAD_REACTORS
330
C
102
}
330
C
100
AcDbDictionary
281
     1
  3
DIMASSOC
350
91
  3
HIDETEXT
350
90
  0
DICTIONARY
  5
8B
102
{ACAD_REACTORS
330
C
102
}
330
C
100
AcDbDictionary
281
     1
  3
ASEBlockHierarchyIndexRecord
350
8D
1001
DCO15
1040
1764482085.652
  0
DIMASSOC
  5
1F3
102
{ACAD_REACTORS
330
1E8
102
}
330
1E8
100
AcDbDimAssoc
330
1DA
 90
        2
 70
     0
 71
     0
  1
AcDbOsnapPointRef
 72
     1
331
F8
 73
     2
 91
        0
 40
5.801682453040067
 10
383.0999250791672
 20
189.3062955004054
 30
0.0
 75
     0
  0
DIMASSOC
  5
309
102
{ACAD_REACTORS
330
2FE
102
}
330
2FE
100
AcDbDimAssoc
330
2F0
 90
        1
 70
     0
 71
     0
  1
AcDbOsnapPointRef
 72
     5
331
F5
 73
     2
 91
        0
 40
4.712388980384689
 10
265.6529635215017
 20
91.98985604775486
 30
0.0
 75
     0
  0
DIMASSOC
  5
32D
102
{ACAD_REACTORS
330
322
102
}
330
322
100
AcDbDimAssoc
330
314
 90
        3
 70
     0
 71
     0
  1
AcDbOsnapPointRef
 72
     1
331
E6
 73
     2
 91
        0
 40
1.0
 10
0.0000004868018095
 20
571.9999991242549
 30
0.0
 75
     0
  1
AcDbOsnapPointRef
 72
     5
331
F5
 73
     2
 91
        0
 40
4.712388980384689
 10
265.6529635215017
 20
91.98985604775486
 30
0.0
 75
     0
  0
DIMASSOC
  5
3AB
102
{ACAD_REACTORS
330
3A0
102
}
330
3A0
100
AcDbDimAssoc
330
392
 90
        3
 70
     0
 71
     0
  1
AcDbOsnapPointRef
 72
    13
331
103
 73
     2
 91
        0
 40
3.129754121592071
 10
91.00000048687707
 20
571.9999991254509
 30
0.0
 75
     0
  1
AcDbOsnapPointRef
 72
    13
331
10E
 73
     2
 91
        0
 40
0.0
 10
442.0000004868017
 20
571.9999991242549
 30
0.0
 75
     0
  0
DIMASSOC
  5
3CB
102
{ACAD_REACTORS
330
3C0
102
}
330
3C0
100
AcDbDimAssoc
330
3B2
 90
        3
 70
     0
 71
     0
  1
AcDbOsnapPointRef
 72
     1
331
E9
 73
     2
 91
        0
 40
1.0
 10
526.0000004868017
 20
571.9999991242549
 30
0.0
 75
     0
  1
AcDbOsnapPointRef
 72
     1
331
E5
 73
     2
 91
        0
 40
1.0
 10
526.0000004868017
 20
-0.0000008757451253
 30
0.0
 75
     0
  0
DIMASSOC
  5
3E5
102
{ACAD_REACTORS
330
3DA
102
}
330
3DA
100
AcDbDimAssoc
330
3CC
 90
        3
 70
     0
 71
     0
  1
AcDbOsnapPointRef
 72
     1
331
E5
 73
     2
 91
        0
 40
1.0
 10
526.0000004868017
 20
-0.0000008757451253
 30
0.0
 75
     0
  1
AcDbOsnapPointRef
 72
    13
331
E5
 73
     2
 91
        0
 40
0.0
 10
0.0000004868018095
 20
-0.0000008757451253
 30
0.0
 75
     0
  0
LAYOUT
  5
1E
102
{ACAD_REACTORS
330
1A
102
}
330
1A
100
AcDbPlotSettings
  1

  2
Canon MP160 Printer
  4

  6

 40
0.0
 41
0.0
 42
0.0
 43
0.0
 44
0.0
 45
0.0
 46
0.0
 47
0.0
 48
0.0
 49
0.0
140
0.0
141
0.0
142
1.0
143
1.0
 70
   688
 72
     0
 73
     0
 74
     5
  7

 75
    16
147
1.0
148
0.0
149
0.0
100
AcDbLayout
  1
Layout1
 70
     1
 71
     1
 10
0.0
 20
0.0
 11
420.0
 21
297.0
 12
0.0
 22
0.0
 32
0.0
 14
1.000000000000000E+20
 24
1.000000000000000E+20
 34
1.000000000000000E+20
 15
-1.000000000000000E+20
 25
-1.000000000000000E+20
 35
-1.000000000000000E+20
146
0.0
 13
0.0
 23
0.0
 33
0.0
 16
1.0
 26
0.0
 36
0.0
 17
0.0
 27
1.0
 37
0.0
 76
     0
330
1B
  0
LAYOUT
  5
26
102
{ACAD_REACTORS
330
1A
102
}
330
1A
100
AcDbPlotSettings
  1

  2
Canon MP160 Printer
  4

  6

 40
0.0
 41
0.0
 42
0.0
 43
0.0
 44
0.0
 45
0.0
 46
0.0
 47
0.0
 48
0.0
 49
0.0
140
0.0
141
0.0
142
1.0
143
1.0
 70
   688
 72
     0
 73
     0
 74
     5
  7

 75
    16
147
1.0
148
0.0
149
0.0
100
AcDbLayout
  1
Layout2
 70
     1
 71
     2
 10
0.0
 20
0.0
 11
12.0
 21
9.0
 12
0.0
 22
0.0
 32
0.0
 14
0.0
 24
0.0
 34
0.0
 15
0.0
 25
0.0
 35
0.0
146
0.0
 13
0.0
 23
0.0
 33
0.0
 16
1.0
 26
0.0
 36
0.0
 17
0.0
 27
1.0
 37
0.0
 76
     0
330
23
  0
LAYOUT
  5
22
102
{ACAD_REACTORS
330
1A
102
}
330
1A
100
AcDbPlotSettings
  1

  2
Canon MP160 Printer
  4
A4
  6

 40
4.180416584014892
 41
5.83141803741455
 42
4.180404663085937
 43
3.757080078125
 44
209.9733276367187
 45
296.9683227539062
 46
0.0
 47
0.0
 48
-215.7983567771284
 49
-128.9919411051325
140
680.9418482757942
141
655.7958252529781
142
1.0
143
3.892554982881376
 70
 11952
 72
     1
 73
     1
 74
     4
  7

 75
     0
147
0.2569006743380083
148
215.7983567771284
149
128.9919411051325
100
AcDbLayout
  1
Model
 70
     1
 71
     0
 10
0.0
 20
0.0
 11
12.0
 21
9.0
 12
0.0
 22
0.0
 32
0.0
 14
0.0
 24
0.0
 34
0.0
 15
0.0
 25
0.0
 35
0.0
146
0.0
 13
0.0
 23
0.0
 33
0.0
 16
1.0
 26
0.0
 36
0.0
 17
0.0
 27
1.0
 37
0.0
 76
     0
330
1F
  0
MLINESTYLE
  5
18
102
{ACAD_REACTORS
330
17
102
}
330
17
100
AcDbMlineStyle
  2
STANDARD
 70
     0
  3

 62
   256
 51
90.0
 52
90.0
 71
     2
 49
0.5
 62
   256
  6
BYLAYER
 49
-0.5
 62
   256
  6
BYLAYER
  0
ACDBPLACEHOLDER
  5
F
102
{ACAD_REACTORS
330
E
102
}
330
E
  0
DICTIONARYVAR
  5
91
102
{ACAD_REACTORS
330
8F
102
}
330
8F
100
DictionaryVariables
280
     0
  1
2
  0
DICTIONARYVAR
  5
90
102
{ACAD_REACTORS
330
8F
102
}
330
8F
100
DictionaryVariables
280
     0
  1
1
  0
XRECORD
  5
8D
102
{ACAD_REACTORS
330
8B
102
}
330
8B
100
AcDbXrecord
280
     1
  0
ENDSEC
  0
EOF
