  0
SECTION
  2
HEADER
  9
$ACADVER
  1
AC1015
  9
$ACADMAINTVER
 70
    13
  9
$DWGCODEPAGE
  3
ANSI_1252
  9
$INSBASE
 10
0.0
 20
0.0
 30
0.0
  9
$EXTMIN
 10
-0.6473322001228326
 20
-375.6522056603841
 30
-0.0000000000112531
  9
$EXTMAX
 10
456.148438457347
 20
210.8257760734136
 30
0.0000000000002922
  9
$LIMMIN
 10
0.0
 20
0.0
  9
$LIMMAX
 10
420.0
 20
297.0
  9
$ORTHOMODE
 70
     1
  9
$REGENMODE
 70
     1
  9
$FILLMODE
 70
     1
  9
$QTEXTMODE
 70
     0
  9
$MIRRTEXT
 70
     1
  9
$LTSCALE
 40
1.0
  9
$ATTMODE
 70
     1
  9
$TEXTSIZE
 40
2.5
  9
$TRACEWID
 40
1.0
  9
$TEXTSTYLE
  7
Standard
  9
$CLAYER
  8
Dimensions
  9
$CELTYPE
  6
ByLayer
  9
$CECOLOR
 62
   256
  9
$CELTSCALE
 40
1.0
  9
$DISPSILH
 70
     0
  9
$DIMSCALE
 40
1.0
  9
$DIMASZ
 40
4.0
  9
$DIMEXO
 40
5.0
  9
$DIMDLI
 40
5.0
  9
$DIMRND
 40
0.0
  9
$DIMDLE
 40
0.0
  9
$DIMEXE
 40
3.0
  9
$DIMTP
 40
0.0
  9
$DIMTM
 40
0.0
  9
$DIMTXT
 40
4.0
  9
$DIMCEN
 40
2.5
  9
$DIMTSZ
 40
0.0
  9
$DIMTOL
 70
     0
  9
$DIMLIM
 70
     0
  9
$DIMTIH
 70
     0
  9
$DIMTOH
 70
     0
  9
$DIMSE1
 70
     0
  9
$DIMSE2
 70
     0
  9
$DIMTAD
 70
     0
  9
$DIMZIN
 70
     8
  9
$DIMBLK
  1

  9
$DIMASO
 70
     1
  9
$DIMSHO
 70
     1
  9
$DIMPOST
  1

  9
$DIMAPOST
  1

  9
$DIMALT
 70
     0
  9
$DIMALTD
 70
     3
  9
$DIMALTF
 40
0.03937007874016
  9
$DIMLFAC
 40
1.0
  9
$DIMTOFL
 70
     1
  9
$DIMTVP
 40
0.0
  9
$DIMTIX
 70
     0
  9
$DIMSOXD
 70
     0
  9
$DIMSAH
 70
     0
  9
$DIMBLK1
  1

  9
$DIMBLK2
  1

  9
$DIMSTYLE
  2
ISO-25
  9
$DIMCLRD
 70
     0
  9
$DIMCLRE
 70
     0
  9
$DIMCLRT
 70
     0
  9
$DIMTFAC
 40
1.0
  9
$DIMGAP
 40
3.0
  9
$DIMJUST
 70
     0
  9
$DIMSD1
 70
     0
  9
$DIMSD2
 70
     0
  9
$DIMTOLJ
 70
     0
  9
$DIMTZIN
 70
     8
  9
$DIMALTZ
 70
     0
  9
$DIMALTTZ
 70
     0
  9
$DIMUPT
 70
     0
  9
$DIMDEC
 70
     1
  9
$DIMTDEC
 70
     1
  9
$DIMALTU
 70
     2
  9
$DIMALTTD
 70
     3
  9
$DIMTXSTY
  7
Standard
  9
$DIMAUNIT
 70
     0
  9
$DIMADEC
 70
     0
  9
$DIMALTRND
 40
0.0
  9
$DIMAZIN
 70
     0
  9
$DIMDSEP
 70
    46
  9
$DIMATFIT
 70
     3
  9
$DIMFRAC
 70
     0
  9
$DIMLDRBLK
  1

  9
$DIMLUNIT
 70
     2
  9
$DIMLWD
 70
    -2
  9
$DIMLWE
 70
    -2
  9
$DIMTMOVE
 70
     0
  9
$LUNITS
 70
     2
  9
$LUPREC
 70
     4
  9
$SKETCHINC
 40
1.0
  9
$FILLETRAD
 40
0.001
  9
$AUNITS
 70
     0
  9
$AUPREC
 70
     0
  9
$MENU
  1
.
  9
$ELEVATION
 40
0.0
  9
$PELEVATION
 40
0.0
  9
$THICKNESS
 40
0.0
  9
$LIMCHECK
 70
     0
  9
$CHAMFERA
 40
10.0
  9
$CHAMFERB
 40
10.0
  9
$CHAMFERC
 40
20.0
  9
$CHAMFERD
 40
0.0
  9
$SKPOLY
 70
     0
  9
$TDCREATE
 40
2456225.439501539
  9
$TDUCREATE
 40
2456225.002001539
  9
$TDUPDATE
 40
2456261.947618530
  9
$TDUUPDATE
 40
2456261.510118530
  9
$TDINDWG
 40
0.0409519560
  9
$TDUSRTIMER
 40
0.0409519560
  9
$USRTIMER
 70
     1
  9
$ANGBASE
 50
0.0
  9
$ANGDIR
 70
     0
  9
$PDMODE
 70
     0
  9
$PDSIZE
 40
0.0
  9
$PLINEWID
 40
0.0
  9
$SPLFRAME
 70
     0
  9
$SPLINETYPE
 70
     6
  9
$SPLINESEGS
 70
     8
  9
$HANDSEED
  5
428
  9
$SURFTAB1
 70
     6
  9
$SURFTAB2
 70
     6
  9
$SURFTYPE
 70
     6
  9
$SURFU
 70
     6
  9
$SURFV
 70
     6
  9
$UCSBASE
  2

  9
$UCSNAME
  2

  9
$UCSORG
 10
0.0
 20
0.0
 30
0.0
  9
$UCSXDIR
 10
1.0
 20
0.0
 30
0.0
  9
$UCSYDIR
 10
0.0
 20
1.0
 30
0.0
  9
$UCSORTHOREF
  2

  9
$UCSORTHOVIEW
 70
     0
  9
$UCSORGTOP
 10
0.0
 20
0.0
 30
0.0
  9
$UCSORGBOTTOM
 10
0.0
 20
0.0
 30
0.0
  9
$UCSORGLEFT
 10
0.0
 20
0.0
 30
0.0
  9
$UCSORGRIGHT
 10
0.0
 20
0.0
 30
0.0
  9
$UCSORGFRONT
 10
0.0
 20
0.0
 30
0.0
  9
$UCSORGBACK
 10
0.0
 20
0.0
 30
0.0
  9
$PUCSBASE
  2

  9
$PUCSNAME
  2

  9
$PUCSORG
 10
0.0
 20
0.0
 30
0.0
  9
$PUCSXDIR
 10
1.0
 20
0.0
 30
0.0
  9
$PUCSYDIR
 10
0.0
 20
1.0
 30
0.0
  9
$PUCSORTHOREF
  2

  9
$PUCSORTHOVIEW
 70
     0
  9
$PUCSORGTOP
 10
0.0
 20
0.0
 30
0.0
  9
$PUCSORGBOTTOM
 10
0.0
 20
0.0
 30
0.0
  9
$PUCSORGLEFT
 10
0.0
 20
0.0
 30
0.0
  9
$PUCSORGRIGHT
 10
0.0
 20
0.0
 30
0.0
  9
$PUCSORGFRONT
 10
0.0
 20
0.0
 30
0.0
  9
$PUCSORGBACK
 10
0.0
 20
0.0
 30
0.0
  9
$USERI1
 70
     0
  9
$USERI2
 70
     0
  9
$USERI3
 70
     0
  9
$USERI4
 70
     0
  9
$USERI5
 70
     0
  9
$USERR1
 40
0.0
  9
$USERR2
 40
0.0
  9
$USERR3
 40
0.0
  9
$USERR4
 40
0.0
  9
$USERR5
 40
0.0
  9
$WORLDVIEW
 70
     1
  9
$SHADEDGE
 70
     3
  9
$SHADEDIF
 70
    70
  9
$TILEMODE
 70
     1
  9
$MAXACTVP
 70
    64
  9
$PINSBASE
 10
0.0
 20
0.0
 30
0.0
  9
$PLIMCHECK
 70
     0
  9
$PEXTMIN
 10
1.000000000000000E+20
 20
1.000000000000000E+20
 30
1.000000000000000E+20
  9
$PEXTMAX
 10
-1.000000000000000E+20
 20
-1.000000000000000E+20
 30
-1.000000000000000E+20
  9
$PLIMMIN
 10
0.0
 20
0.0
  9
$PLIMMAX
 10
420.0
 20
297.0
  9
$UNITMODE
 70
     0
  9
$VISRETAIN
 70
     1
  9
$PLINEGEN
 70
     0
  9
$PSLTSCALE
 70
     1
  9
$TREEDEPTH
 70
  3020
  9
$CMLSTYLE
  2
Standard
  9
$CMLJUST
 70
     0
  9
$CMLSCALE
 40
20.0
  9
$PROXYGRAPHICS
 70
     1
  9
$MEASUREMENT
 70
     1
  9
$CELWEIGHT
370
    -1
  9
$ENDCAPS
280
     0
  9
$JOINSTYLE
280
     0
  9
$LWDISPLAY
290
     0
  9
$INSUNITS
 70
     4
  9
$HYPERLINKBASE
  1

  9
$STYLESHEET
  1

  9
$XEDIT
290
     1
  9
$CEPSNTYPE
380
     0
  9
$PSTYLEMODE
290
     1
  9
$FINGERPRINTGUID
  2
{980D071A-C52A-48F0-B764-44478E7E2F23}
  9
$VERSIONGUID
  2
{B69E5B77-A6E4-4D50-9403-DC24BB64629F}
  9
$EXTNAMES
290
     1
  9
$PSVPSCALE
 40
0.0
  9
$OLESTARTUP
290
     0
  0
ENDSEC
  0
SECTION
  2
CLASSES
  0
CLASS
  1
ACDBDICTIONARYWDFLT
  2
AcDbDictionaryWithDefault
  3
AutoCAD 2000
 90
        0
280
     0
281
     0
  0
CLASS
  1
ACDBPLACEHOLDER
  2
AcDbPlaceHolder
  3
AutoCAD 2000
 90
        0
280
     0
281
     0
  0
CLASS
  1
LAYOUT
  2
AcDbLayout
  3
AutoCAD 2000
 90
        0
280
     0
281
     0
  0
CLASS
  1
DICTIONARYVAR
  2
AcDbDictionaryVar
  3
AutoCAD 2000
 90
        0
280
     0
281
     0
  0
CLASS
  1
DIMASSOC
  2
AcDbDimAssoc
  3
"AcDbDimAssoc|Product Desc:     AcDim ARX App For Dimension|Company:          Autodesk, Inc.|WEB Address:      www.autodesk.com"
 90
        0
280
     0
281
     0
  0
ENDSEC
  0
SECTION
  2
TABLES
  0
TABLE
  2
VPORT
  5
8
330
0
100
AcDbSymbolTable
 70
     6
  0
VPORT
  5
427
330
8
100
AcDbSymbolTableRecord
100
AcDbViewportTableRecord
  2
*Active
 70
     0
 10
0.0
 20
0.0
 11
1.0
 21
1.0
 12
354.2513986600736
 22
107.1379223196485
 13
0.0
 23
0.0
 14
10.0
 24
10.0
 15
10.0
 25
10.0
 16
0.0
 26
0.0
 36
1.0
 17
0.0
 27
0.0
 37
0.0
 40
451.1499248534597
 41
2.424812030075187
 42
50.0
 43
0.0
 44
0.0
 50
0.0
 51
0.0
 71
     0
 72
   100
 73
     1
 74
     3
 75
     0
 76
     0
 77
     0
 78
     0
281
     0
 65
     1
110
0.0
120
0.0
130
0.0
111
1.0
121
0.0
131
0.0
112
0.0
122
1.0
132
0.0
 79
     0
146
0.0
  0
ENDTAB
  0
TABLE
  2
LTYPE
  5
5
330
0
100
AcDbSymbolTable
 70
     2
  0
LTYPE
  5
14
330
5
100
AcDbSymbolTableRecord
100
AcDbLinetypeTableRecord
  2
ByBlock
 70
     0
  3

 72
    65
 73
     0
 40
0.0
  0
LTYPE
  5
15
330
5
100
AcDbSymbolTableRecord
100
AcDbLinetypeTableRecord
  2
ByLayer
 70
     0
  3

 72
    65
 73
     0
 40
0.0
  0
LTYPE
  5
16
330
5
100
AcDbSymbolTableRecord
100
AcDbLinetypeTableRecord
  2
Continuous
 70
     0
  3
Solid line
 72
    65
 73
     0
 40
0.0
  0
LTYPE
  5
1D8
330
5
100
AcDbSymbolTableRecord
100
AcDbLinetypeTableRecord
  2
HIDDEN
 70
     0
  3
Hidden __ __ __ __ __ __ __ __ __ __ __ __ __ _
 72
    65
 73
     2
 40
9.524999999999998
 49
6.349999999999999
 74
     0
 49
-3.174999999999999
 74
     0
  0
ENDTAB
  0
TABLE
  2
LAYER
  5
2
330
0
100
AcDbSymbolTable
 70
     6
  0
LAYER
  5
10
330
2
100
AcDbSymbolTableRecord
100
AcDbLayerTableRecord
  2
0
 70
     0
 62
     7
  6
Continuous
370
    -3
390
F
  0
LAYER
  5
2B
330
2
100
AcDbSymbolTableRecord
100
AcDbLayerTableRecord
  2
CK_LEVEL_1
 70
     0
 62
     7
  6
Continuous
370
    -3
390
F
  0
LAYER
  5
2C
330
2
100
AcDbSymbolTableRecord
100
AcDbLayerTableRecord
  2
CK_LEVEL_2
 70
     0
 62
     7
  6
Continuous
370
    -3
390
F
  0
LAYER
  5
140
330
2
100
AcDbSymbolTableRecord
100
AcDbLayerTableRecord
  2
Construction
 70
     0
 62
     4
  6
Continuous
370
    -3
390
F
  0
LAYER
  5
141
330
2
100
AcDbSymbolTableRecord
100
AcDbLayerTableRecord
  2
Dimensions
 70
     0
 62
     7
  6
Continuous
370
    -3
390
F
  0
LAYER
  5
145
330
2
100
AcDbSymbolTableRecord
100
AcDbLayerTableRecord
  2
Defpoints
 70
     0
 62
     7
  6
Continuous
290
     0
370
    -3
390
F
  0
ENDTAB
  0
TABLE
  2
STYLE
  5
3
330
0
100
AcDbSymbolTable
 70
     2
  0
STYLE
  5
11
330
3
100
AcDbSymbolTableRecord
100
AcDbTextStyleTableRecord
  2
Standard
 70
     0
 40
0.0
 41
1.0
 50
0.0
 71
     0
 42
2.5
  3
txt
  4

  0
STYLE
  5
13F
330
3
100
AcDbSymbolTableRecord
100
AcDbTextStyleTableRecord
  2

 70
     1
 40
0.0
 41
1.0
 50
0.0
 71
     0
 42
2.5
  3
ltypeshp.shx
  4

  0
ENDTAB
  0
TABLE
  2
VIEW
  5
6
330
0
100
AcDbSymbolTable
 70
     0
  0
ENDTAB
  0
TABLE
  2
UCS
  5
7
330
0
100
AcDbSymbolTable
 70
     0
  0
ENDTAB
  0
TABLE
  2
APPID
  5
9
330
0
100
AcDbSymbolTable
 70
     2
  0
APPID
  5
12
330
9
100
AcDbSymbolTableRecord
100
AcDbRegAppTableRecord
  2
ACAD
 70
     0
  0
APPID
  5
8C
330
9
100
AcDbSymbolTableRecord
100
AcDbRegAppTableRecord
  2
DCO15
 70
     0
  0
ENDTAB
  0
TABLE
  2
DIMSTYLE
  5
A
330
0
100
AcDbSymbolTable
 70
     2
100
AcDbDimStyleTable
 71
     1
340
27
  0
DIMSTYLE
105
27
102
{ACAD_REACTORS
330
144
330
169
330
181
330
261
330
2C9
330
31B
330
341
330
3C2
330
3DC
102
}
330
A
100
AcDbSymbolTableRecord
100
AcDbDimStyleTableRecord
  2
ISO-25
 70
     0
 41
4.0
 42
5.0
 43
5.0
 44
3.0
 73
     0
 74
     0
 78
     8
140
4.0
141
2.5
143
0.03937007874016
147
3.0
171
     3
172
     1
271
     1
272
     1
274
     3
283
     0
284
     8
340
11
  0
DIMSTYLE
105
2D
330
A
100
AcDbSymbolTableRecord
100
AcDbDimStyleTableRecord
  2
STANDARD
 70
     0
340
11
  0
ENDTAB
  0
TABLE
  2
BLOCK_RECORD
  5
1
330
0
100
AcDbSymbolTable
 70
    15
  0
BLOCK_RECORD
  5
1F
330
1
100
AcDbSymbolTableRecord
100
AcDbBlockTableRecord
  2
*Model_Space
340
22
  0
BLOCK_RECORD
  5
1B
330
1
100
AcDbSymbolTableRecord
100
AcDbBlockTableRecord
  2
*Paper_Space
340
1E
  0
BLOCK_RECORD
  5
23
330
1
100
AcDbSymbolTableRecord
100
AcDbBlockTableRecord
  2
*Paper_Space0
340
26
  0
BLOCK_RECORD
  5
146
330
1
100
AcDbSymbolTableRecord
100
AcDbBlockTableRecord
  2
*D1
340
0
  0
BLOCK_RECORD
  5
16A
330
1
100
AcDbSymbolTableRecord
100
AcDbBlockTableRecord
  2
*D2
340
0
  0
BLOCK_RECORD
  5
182
330
1
100
AcDbSymbolTableRecord
100
AcDbBlockTableRecord
  2
*D3
340
0
  0
BLOCK_RECORD
  5
262
330
1
100
AcDbSymbolTableRecord
100
AcDbBlockTableRecord
  2
*D4
340
0
  0
BLOCK_RECORD
  5
27C
330
1
100
AcDbSymbolTableRecord
100
AcDbBlockTableRecord
  2
*D5
340
0
  0
BLOCK_RECORD
  5
296
330
1
100
AcDbSymbolTableRecord
100
AcDbBlockTableRecord
  2
*D6
340
0
  0
BLOCK_RECORD
  5
2B0
330
1
100
AcDbSymbolTableRecord
100
AcDbBlockTableRecord
  2
*D7
340
0
  0
BLOCK_RECORD
  5
2CA
330
1
100
AcDbSymbolTableRecord
100
AcDbBlockTableRecord
  2
*D8
340
0
  0
BLOCK_RECORD
  5
2E5
330
1
100
AcDbSymbolTableRecord
100
AcDbBlockTableRecord
  2
*D9
340
0
  0
BLOCK_RECORD
  5
2F5
330
1
100
AcDbSymbolTableRecord
100
AcDbBlockTableRecord
  2
*D10
340
0
  0
BLOCK_RECORD
  5
31C
330
1
100
AcDbSymbolTableRecord
100
AcDbBlockTableRecord
  2
*D11
340
0
  0
BLOCK_RECORD
  5
342
330
1
100
AcDbSymbolTableRecord
100
AcDbBlockTableRecord
  2
*D12
340
0
  0
BLOCK_RECORD
  5
3C3
330
1
100
AcDbSymbolTableRecord
100
AcDbBlockTableRecord
  2
*D13
340
0
  0
BLOCK_RECORD
  5
3DD
330
1
100
AcDbSymbolTableRecord
100
AcDbBlockTableRecord
  2
*D14
340
0
  0
ENDTAB
  0
ENDSEC
  0
SECTION
  2
BLOCKS
  0
BLOCK
  5
20
330
1F
100
AcDbEntity
  8
0
100
AcDbBlockBegin
  2
*Model_Space
 70
     0
 10
0.0
 20
0.0
 30
0.0
  3
*Model_Space
  1

  0
ENDBLK
  5
21
330
1F
100
AcDbEntity
  8
0
100
AcDbBlockEnd
  0
BLOCK
  5
1C
330
1B
100
AcDbEntity
 67
     1
  8
0
100
AcDbBlockBegin
  2
*Paper_Space
 70
     0
 10
0.0
 20
0.0
 30
0.0
  3
*Paper_Space
  1

  0
ENDBLK
  5
1D
330
1B
100
AcDbEntity
 67
     1
  8
0
100
AcDbBlockEnd
  0
BLOCK
  5
24
330
23
100
AcDbEntity
  8
0
100
AcDbBlockBegin
  2
*Paper_Space0
 70
     0
 10
0.0
 20
0.0
 30
0.0
  3
*Paper_Space0
  1

  0
ENDBLK
  5
25
330
23
100
AcDbEntity
  8
0
100
AcDbBlockEnd
  0
BLOCK
  5
14D
330
146
100
AcDbEntity
  8
0
100
AcDbBlockBegin
  2
*D1
 70
     1
 10
0.0
 20
0.0
 30
0.0
  3
*D1
  1

  0
LINE
  5
412
330
146
100
AcDbEntity
  8
Dimensions
 62
     0
370
    -2
100
AcDbLine
 10
98.61551101005808
 20
48.8018732837747
 30
0.0
 11
103.5831528927291
 21
29.2582580980734
 31
0.0
  0
MTEXT
  5
413
330
146
100
AcDbEntity
  8
Dimensions
 62
     0
100
AcDbMText
 10
96.23413967045877
 20
58.17062533446848
 30
0.0
 40
4.0
 41
0.0
 71
     5
 72
     1
  1
R414
 11
0.246348759268896
 21
-0.9691812466234971
 31
0.0
 73
     1
 44
1.0
  0
LINE
  5
414
330
146
100
AcDbEntity
  8
Dimensions
 62
     0
370
    -2
100
AcDbLine
 10
206.4989999999998
 20
-375.6315789474002
 30
0.0
 11
104.5685479298047
 21
25.38153311157941
 31
0.0
  0
SOLID
  5
415
330
146
100
AcDbEntity
  8
Dimensions
 62
     0
100
AcDbTrace
 10
104.2292737238115
 20
29.42249060425267
 30
0.0
 11
102.9370320616468
 21
29.09402559189414
 31
0.0
 12
104.5685479298047
 22
25.38153311157941
 32
0.0
 13
104.5685479298047
 23
25.38153311157941
 33
0.0
  0
POINT
  5
416
330
146
100
AcDbEntity
  8
Defpoints
 62
     0
100
AcDbPoint
 10
104.5685479298047
 20
25.38153311157941
 30
0.0
  0
POINT
  5
417
330
146
100
AcDbEntity
  8
Defpoints
 62
     0
100
AcDbPoint
 10
206.4989999999998
 20
-375.6315789474002
 30
0.0
  0
ENDBLK
  5
14E
330
146
100
AcDbEntity
  8
0
100
AcDbBlockEnd
  0
BLOCK
  5
174
330
16A
100
AcDbEntity
  8
0
100
AcDbBlockBegin
  2
*D2
 70
     1
 10
0.0
 20
0.0
 30
0.0
  3
*D2
  1

  0
LINE
  5
41C
330
16A
100
AcDbEntity
  8
Dimensions
 62
     0
370
    -2
100
AcDbLine
 10
201.4989999999999
 20
38.13324930949994
 30
0.0
 11
202.3056612523662
 21
38.13324930949994
 31
0.0
  0
LINE
  5
41D
330
16A
100
AcDbEntity
  8
Dimensions
 62
     0
370
    -2
100
AcDbLine
 10
201.4989999999999
 20
0.0000000000000014
 30
0.0
 11
202.3056612523662
 21
0.0000000000000012
 31
0.0
  0
LINE
  5
41E
330
16A
100
AcDbEntity
  8
Dimensions
 62
     0
370
    -2
100
AcDbLine
 10
205.3056612523662
 20
34.13324930949994
 30
0.0
 11
205.3056612523662
 21
25.3999579880833
 31
0.0
  0
LINE
  5
41F
330
16A
100
AcDbEntity
  8
Dimensions
 62
     0
370
    -2
100
AcDbLine
 10
205.3056612523662
 20
4.0
 30
0.0
 11
205.3056612523662
 21
12.73329132141663
 31
0.0
  0
SOLID
  5
420
330
16A
100
AcDbEntity
  8
Dimensions
 62
     0
100
AcDbTrace
 10
204.6389945856995
 20
34.13324930949994
 30
0.0
 11
205.9723279190329
 21
34.13324930949994
 31
0.0
 12
205.3056612523662
 22
38.13324930949994
 32
0.0
 13
205.3056612523662
 23
38.13324930949994
 33
0.0
  0
SOLID
  5
421
330
16A
100
AcDbEntity
  8
Dimensions
 62
     0
100
AcDbTrace
 10
204.6389945856995
 20
4.0
 30
0.0
 11
205.9723279190329
 21
4.0
 31
0.0
 12
205.3056612523662
 22
0.0000000000000003
 32
0.0
 13
205.3056612523662
 23
0.0000000000000003
 33
0.0
  0
MTEXT
  5
422
330
16A
100
AcDbEntity
  8
Dimensions
 62
     0
100
AcDbMText
 10
205.3056612523662
 20
19.06662465475
 30
0.0
 40
4.0
 41
0.0
 71
     5
 72
     1
  1
38
 11
0.0000000000000001
 21
1.0
 31
0.0
 73
     1
 44
1.0
  0
POINT
  5
423
330
16A
100
AcDbEntity
  8
Defpoints
 62
     0
100
AcDbPoint
 10
206.4989999999999
 20
38.13324930949994
 30
0.0
  0
POINT
  5
424
330
16A
100
AcDbEntity
  8
Defpoints
 62
     0
100
AcDbPoint
 10
206.4989999999999
 20
0.0
 30
0.0
  0
POINT
  5
425
330
16A
100
AcDbEntity
  8
Defpoints
 62
     0
100
AcDbPoint
 10
205.3056612523662
 20
0.0000000000000003
 30
0.0
  0
ENDBLK
  5
175
330
16A
100
AcDbEntity
  8
0
100
AcDbBlockEnd
  0
BLOCK
  5
18C
330
182
100
AcDbEntity
  8
0
100
AcDbBlockBegin
  2
*D3
 70
     1
 10
0.0
 20
0.0
 30
0.0
  3
*D3
  1

  0
LINE
  5
251
330
182
100
AcDbEntity
  8
Dimensions
 62
     0
370
    -2
100
AcDbLine
 10
30.81486586659991
 20
-5.0
 30
0.0
 11
30.81486586659991
 21
-22.18286285636815
 31
0.0
  0
LINE
  5
252
330
182
100
AcDbEntity
  8
Dimensions
 62
     0
370
    -2
100
AcDbLine
 10
382.1831341333999
 20
-5.0
 30
0.0
 11
382.1831341333999
 21
-22.18286285636815
 31
0.0
  0
LINE
  5
253
330
182
100
AcDbEntity
  8
Dimensions
 62
     0
370
    -2
100
AcDbLine
 10
34.81486586659991
 20
-19.18286285636816
 30
0.0
 11
196.1656666666666
 21
-19.18286285636816
 31
0.0
  0
LINE
  5
254
330
182
100
AcDbEntity
  8
Dimensions
 62
     0
370
    -2
100
AcDbLine
 10
378.1831341333999
 20
-19.18286285636816
 30
0.0
 11
216.8323333333332
 21
-19.18286285636816
 31
0.0
  0
SOLID
  5
255
330
182
100
AcDbEntity
  8
Dimensions
 62
     0
100
AcDbTrace
 10
34.81486586659991
 20
-18.51619618970149
 30
0.0
 11
34.81486586659991
 21
-19.84952952303483
 31
0.0
 12
30.81486586659991
 22
-19.18286285636816
 32
0.0
 13
30.81486586659991
 23
-19.18286285636816
 33
0.0
  0
SOLID
  5
256
330
182
100
AcDbEntity
  8
Dimensions
 62
     0
100
AcDbTrace
 10
378.1831341333999
 20
-18.51619618970149
 30
0.0
 11
378.1831341333999
 21
-19.84952952303483
 31
0.0
 12
382.1831341333999
 22
-19.18286285636816
 32
0.0
 13
382.1831341333999
 23
-19.18286285636816
 33
0.0
  0
MTEXT
  5
257
330
182
100
AcDbEntity
  8
Dimensions
 62
     0
100
AcDbMText
 10
206.4989999999999
 20
-19.18286285636816
 30
0.0
 40
4.0
 41
0.0
 71
     5
 72
     1
  1
(351)
 73
     1
 44
1.0
  0
POINT
  5
258
330
182
100
AcDbEntity
  8
Defpoints
 62
     0
100
AcDbPoint
 10
30.81486586659991
 20
0.0
 30
0.0
  0
POINT
  5
259
330
182
100
AcDbEntity
  8
Defpoints
 62
     0
100
AcDbPoint
 10
382.1831341333999
 20
0.0
 30
0.0
  0
POINT
  5
25A
330
182
100
AcDbEntity
  8
Defpoints
 62
     0
100
AcDbPoint
 10
382.1831341333999
 20
-19.18286285636816
 30
0.0
  0
ENDBLK
  5
18D
330
182
100
AcDbEntity
  8
0
100
AcDbBlockEnd
  0
BLOCK
  5
26D
330
262
100
AcDbEntity
  8
0
100
AcDbBlockBegin
  2
*D4
 70
     1
 10
0.0
 20
0.0
 30
0.0
  3
*D4
  1

  0
LINE
  5
3A3
330
262
100
AcDbEntity
  8
Dimensions
 62
     0
370
    -2
100
AcDbLine
 10
194.3740000001216
 20
117.9637177179654
 30
0.0
 11
194.3740000001216
 21
129.1414002253133
 31
0.0
  0
LINE
  5
3A4
330
262
100
AcDbEntity
  8
Dimensions
 62
     0
370
    -2
100
AcDbLine
 10
237.7489999999066
 20
117.9637177179654
 30
0.0
 11
237.7489999999066
 21
129.1414002253133
 31
0.0
  0
LINE
  5
3A5
330
262
100
AcDbEntity
  8
Dimensions
 62
     0
370
    -2
100
AcDbLine
 10
198.3740000001216
 20
126.1414002253133
 30
0.0
 11
206.490619723205
 21
126.1414002253133
 31
0.0
  0
LINE
  5
3A6
330
262
100
AcDbEntity
  8
Dimensions
 62
     0
370
    -2
100
AcDbLine
 10
233.7489999999066
 20
126.1414002253133
 30
0.0
 11
224.490619723205
 21
126.1414002253133
 31
0.0
  0
SOLID
  5
3A7
330
262
100
AcDbEntity
  8
Dimensions
 62
     0
100
AcDbTrace
 10
198.3740000001216
 20
126.8080668919799
 30
0.0
 11
198.3740000001216
 21
125.4747335586466
 31
0.0
 12
194.3740000001216
 22
126.1414002253133
 32
0.0
 13
194.3740000001216
 23
126.1414002253133
 33
0.0
  0
SOLID
  5
3A8
330
262
100
AcDbEntity
  8
Dimensions
 62
     0
100
AcDbTrace
 10
233.7489999999066
 20
126.8080668919799
 30
0.0
 11
233.7489999999066
 21
125.4747335586466
 31
0.0
 12
237.7489999999066
 22
126.1414002253133
 32
0.0
 13
237.7489999999066
 23
126.1414002253133
 33
0.0
  0
MTEXT
  5
3A9
330
262
100
AcDbEntity
  8
Dimensions
 62
     0
100
AcDbMText
 10
215.4906197232051
 20
126.1414002253133
 30
0.0
 40
4.0
 41
0.0
 71
     5
 72
     1
  1
43.5
 73
     1
 44
1.0
  0
POINT
  5
3AA
330
262
100
AcDbEntity
  8
Defpoints
 62
     0
100
AcDbPoint
 10
194.3740000001216
 20
112.9637177179654
 30
0.0
  0
POINT
  5
3AB
330
262
100
AcDbEntity
  8
Defpoints
 62
     0
100
AcDbPoint
 10
237.7489999999066
 20
112.9637177179654
 30
0.0
  0
POINT
  5
3AC
330
262
100
AcDbEntity
  8
Defpoints
 62
     0
100
AcDbPoint
 10
237.7489999999066
 20
126.1414002253133
 30
0.0
  0
ENDBLK
  5
26E
330
262
100
AcDbEntity
  8
0
100
AcDbBlockEnd
  0
BLOCK
  5
287
330
27C
100
AcDbEntity
  8
0
100
AcDbBlockBegin
  2
*D5
 70
     1
 10
0.0
 20
0.0
 30
0.0
  3
*D5
  1

  0
LINE
  5
28A
330
27C
100
AcDbEntity
  8
Dimensions
 62
     0
370
    -2
100
AcDbLine
 10
171.7490000001042
 20
118.0
 30
0.0
 11
171.7490000001042
 21
83.62385920655549
 31
0.0
  0
LINE
  5
28B
330
27C
100
AcDbEntity
  8
Dimensions
 62
     0
370
    -2
100
AcDbLine
 10
258.4989999999198
 20
117.9999999999999
 30
0.0
 11
258.4989999999198
 21
83.62385920655549
 31
0.0
  0
LINE
  5
28C
330
27C
100
AcDbEntity
  8
Dimensions
 62
     0
370
    -2
100
AcDbLine
 10
175.7490000001042
 20
86.6238592065555
 30
0.0
 11
206.124000000012
 21
86.6238592065555
 31
0.0
  0
LINE
  5
28D
330
27C
100
AcDbEntity
  8
Dimensions
 62
     0
370
    -2
100
AcDbLine
 10
254.4989999999198
 20
86.6238592065555
 30
0.0
 11
224.124000000012
 21
86.6238592065555
 31
0.0
  0
SOLID
  5
28E
330
27C
100
AcDbEntity
  8
Dimensions
 62
     0
100
AcDbTrace
 10
175.7490000001042
 20
87.29052587322216
 30
0.0
 11
175.7490000001042
 21
85.95719253988882
 31
0.0
 12
171.7490000001042
 22
86.6238592065555
 32
0.0
 13
171.7490000001042
 23
86.6238592065555
 33
0.0
  0
SOLID
  5
28F
330
27C
100
AcDbEntity
  8
Dimensions
 62
     0
100
AcDbTrace
 10
254.4989999999198
 20
87.29052587322216
 30
0.0
 11
254.4989999999198
 21
85.95719253988882
 31
0.0
 12
258.4989999999198
 22
86.6238592065555
 32
0.0
 13
258.4989999999198
 23
86.6238592065555
 33
0.0
  0
MTEXT
  5
290
330
27C
100
AcDbEntity
  8
Dimensions
 62
     0
100
AcDbMText
 10
215.124000000012
 20
86.6238592065555
 30
0.0
 40
4.0
 41
0.0
 71
     5
 72
     1
  1
86.7
 73
     1
 44
1.0
  0
POINT
  5
291
330
27C
100
AcDbEntity
  8
Defpoints
 62
     0
100
AcDbPoint
 10
171.7490000001042
 20
123.0
 30
0.0
  0
POINT
  5
292
330
27C
100
AcDbEntity
  8
Defpoints
 62
     0
100
AcDbPoint
 10
258.4989999999198
 20
122.9999999999999
 30
0.0
  0
POINT
  5
293
330
27C
100
AcDbEntity
  8
Defpoints
 62
     0
100
AcDbPoint
 10
258.4989999999198
 20
86.6238592065555
 30
0.0
  0
ENDBLK
  5
288
330
27C
100
AcDbEntity
  8
0
100
AcDbBlockEnd
  0
BLOCK
  5
2A1
330
296
100
AcDbEntity
  8
0
100
AcDbBlockBegin
  2
*D6
 70
     1
 10
0.0
 20
0.0
 30
0.0
  3
*D6
  1

  0
LINE
  5
2A4
330
296
100
AcDbEntity
  8
Dimensions
 62
     0
370
    -2
100
AcDbLine
 10
126.4990000000695
 20
128.0
 30
0.0
 11
126.4990000000695
 21
69.46207708920724
 31
0.0
  0
LINE
  5
2A5
330
296
100
AcDbEntity
  8
Dimensions
 62
     0
370
    -2
100
AcDbLine
 10
299.9989999999467
 20
127.9999999999999
 30
0.0
 11
299.9989999999467
 21
69.46207708920724
 31
0.0
  0
LINE
  5
2A6
330
296
100
AcDbEntity
  8
Dimensions
 62
     0
370
    -2
100
AcDbLine
 10
130.4990000000695
 20
72.46207708920724
 30
0.0
 11
202.9156666666747
 21
72.46207708920724
 31
0.0
  0
LINE
  5
2A7
330
296
100
AcDbEntity
  8
Dimensions
 62
     0
370
    -2
100
AcDbLine
 10
295.9989999999466
 20
72.46207708920724
 30
0.0
 11
223.5823333333414
 21
72.46207708920724
 31
0.0
  0
SOLID
  5
2A8
330
296
100
AcDbEntity
  8
Dimensions
 62
     0
100
AcDbTrace
 10
130.4990000000695
 20
73.12874375587391
 30
0.0
 11
130.4990000000695
 21
71.79541042254057
 31
0.0
 12
126.4990000000695
 22
72.46207708920724
 32
0.0
 13
126.4990000000695
 23
72.46207708920724
 33
0.0
  0
SOLID
  5
2A9
330
296
100
AcDbEntity
  8
Dimensions
 62
     0
100
AcDbTrace
 10
295.9989999999466
 20
73.12874375587391
 30
0.0
 11
295.9989999999466
 21
71.79541042254057
 31
0.0
 12
299.9989999999467
 22
72.46207708920724
 32
0.0
 13
299.9989999999467
 23
72.46207708920724
 33
0.0
  0
MTEXT
  5
2AA
330
296
100
AcDbEntity
  8
Dimensions
 62
     0
100
AcDbMText
 10
213.2490000000081
 20
72.46207708920724
 30
0.0
 40
4.0
 41
0.0
 71
     5
 72
     1
  1
173.5
 73
     1
 44
1.0
  0
POINT
  5
2AB
330
296
100
AcDbEntity
  8
Defpoints
 62
     0
100
AcDbPoint
 10
126.4990000000695
 20
133.0
 30
0.0
  0
POINT
  5
2AC
330
296
100
AcDbEntity
  8
Defpoints
 62
     0
100
AcDbPoint
 10
299.9989999999467
 20
132.9999999999999
 30
0.0
  0
POINT
  5
2AD
330
296
100
AcDbEntity
  8
Defpoints
 62
     0
100
AcDbPoint
 10
299.9989999999467
 20
72.46207708920724
 30
0.0
  0
ENDBLK
  5
2A2
330
296
100
AcDbEntity
  8
0
100
AcDbBlockEnd
  0
BLOCK
  5
2BB
330
2B0
100
AcDbEntity
  8
0
100
AcDbBlockBegin
  2
*D7
 70
     1
 10
0.0
 20
0.0
 30
0.0
  3
*D7
  1

  0
LINE
  5
2BE
330
2B0
100
AcDbEntity
  8
Dimensions
 62
     0
370
    -2
100
AcDbLine
 10
341.4989999999733
 20
147.9999999999999
 30
0.0
 11
341.4989999999733
 21
174.5945495211995
 31
0.0
  0
LINE
  5
2BF
330
2B0
100
AcDbEntity
  8
Dimensions
 62
     0
370
    -2
100
AcDbLine
 10
81.24900000003467
 20
148.0
 30
0.0
 11
81.24900000003467
 21
174.5945495211995
 31
0.0
  0
LINE
  5
2C0
330
2B0
100
AcDbEntity
  8
Dimensions
 62
     0
370
    -2
100
AcDbLine
 10
337.4989999999733
 20
171.5945495211995
 30
0.0
 11
222.0406666666706
 21
171.5945495211995
 31
0.0
  0
LINE
  5
2C1
330
2B0
100
AcDbEntity
  8
Dimensions
 62
     0
370
    -2
100
AcDbLine
 10
85.24900000003468
 20
171.5945495211995
 30
0.0
 11
200.7073333333373
 21
171.5945495211995
 31
0.0
  0
SOLID
  5
2C2
330
2B0
100
AcDbEntity
  8
Dimensions
 62
     0
100
AcDbTrace
 10
337.4989999999733
 20
172.2612161878661
 30
0.0
 11
337.4989999999733
 21
170.9278828545328
 31
0.0
 12
341.4989999999733
 22
171.5945495211995
 32
0.0
 13
341.4989999999733
 23
171.5945495211995
 33
0.0
  0
SOLID
  5
2C3
330
2B0
100
AcDbEntity
  8
Dimensions
 62
     0
100
AcDbTrace
 10
85.24900000003468
 20
172.2612161878661
 30
0.0
 11
85.24900000003468
 21
170.9278828545328
 31
0.0
 12
81.24900000003467
 22
171.5945495211995
 32
0.0
 13
81.24900000003467
 23
171.5945495211995
 33
0.0
  0
MTEXT
  5
2C4
330
2B0
100
AcDbEntity
  8
Dimensions
 62
     0
100
AcDbMText
 10
211.3740000000039
 20
171.5945495211995
 30
0.0
 40
4.0
 41
0.0
 71
     5
 72
     1
  1
260.2
 73
     1
 44
1.0
  0
POINT
  5
2C5
330
2B0
100
AcDbEntity
  8
Defpoints
 62
     0
100
AcDbPoint
 10
341.4989999999733
 20
142.9999999999999
 30
0.0
  0
POINT
  5
2C6
330
2B0
100
AcDbEntity
  8
Defpoints
 62
     0
100
AcDbPoint
 10
81.24900000003467
 20
143.0
 30
0.0
  0
POINT
  5
2C7
330
2B0
100
AcDbEntity
  8
Defpoints
 62
     0
100
AcDbPoint
 10
81.24900000003467
 20
171.5945495211995
 30
0.0
  0
ENDBLK
  5
2BC
330
2B0
100
AcDbEntity
  8
0
100
AcDbBlockEnd
  0
BLOCK
  5
2D5
330
2CA
100
AcDbEntity
  8
0
100
AcDbBlockBegin
  2
*D8
 70
     1
 10
0.0
 20
0.0
 30
0.0
  3
*D8
  1

  0
LINE
  5
385
330
2CA
100
AcDbEntity
  8
Dimensions
 62
     0
370
    -2
100
AcDbLine
 10
382.9989999999999
 20
157.9999999999999
 30
0.0
 11
382.9989999999999
 21
192.7216301535161
 31
0.0
  0
LINE
  5
386
330
2CA
100
AcDbEntity
  8
Dimensions
 62
     0
370
    -2
100
AcDbLine
 10
35.9989999999999
 20
158.0
 30
0.0
 11
35.9989999999999
 21
192.7216301535161
 31
0.0
  0
LINE
  5
387
330
2CA
100
AcDbEntity
  8
Dimensions
 62
     0
370
    -2
100
AcDbLine
 10
378.9989999999999
 20
189.7216301535161
 30
0.0
 11
217.8323333333332
 21
189.7216301535161
 31
0.0
  0
LINE
  5
388
330
2CA
100
AcDbEntity
  8
Dimensions
 62
     0
370
    -2
100
AcDbLine
 10
39.99899999999991
 20
189.7216301535161
 30
0.0
 11
201.1656666666666
 21
189.7216301535161
 31
0.0
  0
SOLID
  5
389
330
2CA
100
AcDbEntity
  8
Dimensions
 62
     0
100
AcDbTrace
 10
378.9989999999999
 20
190.3882968201827
 30
0.0
 11
378.9989999999999
 21
189.0549634868494
 31
0.0
 12
382.9989999999999
 22
189.7216301535161
 32
0.0
 13
382.9989999999999
 23
189.7216301535161
 33
0.0
  0
SOLID
  5
38A
330
2CA
100
AcDbEntity
  8
Dimensions
 62
     0
100
AcDbTrace
 10
39.99899999999991
 20
190.3882968201827
 30
0.0
 11
39.99899999999991
 21
189.0549634868494
 31
0.0
 12
35.9989999999999
 22
189.7216301535161
 32
0.0
 13
35.9989999999999
 23
189.7216301535161
 33
0.0
  0
MTEXT
  5
38B
330
2CA
100
AcDbEntity
  8
Dimensions
 62
     0
100
AcDbMText
 10
209.4989999999999
 20
189.7216301535161
 30
0.0
 40
4.0
 41
0.0
 71
     5
 72
     1
  1
347
 73
     1
 44
1.0
  0
POINT
  5
38C
330
2CA
100
AcDbEntity
  8
Defpoints
 62
     0
100
AcDbPoint
 10
382.9989999999999
 20
152.9999999999999
 30
0.0
  0
POINT
  5
38D
330
2CA
100
AcDbEntity
  8
Defpoints
 62
     0
100
AcDbPoint
 10
35.9989999999999
 20
153.0
 30
0.0
  0
POINT
  5
38E
330
2CA
100
AcDbEntity
  8
Defpoints
 62
     0
100
AcDbPoint
 10
35.9989999999999
 20
189.7216301535161
 30
0.0
  0
ENDBLK
  5
2D6
330
2CA
100
AcDbEntity
  8
0
100
AcDbBlockEnd
  0
BLOCK
  5
2EB
330
2E5
100
AcDbEntity
  8
0
100
AcDbBlockBegin
  2
*D9
 70
     1
 10
0.0
 20
0.0
 30
0.0
  3
*D9
  1

  0
LINE
  5
2EE
330
2E5
100
AcDbEntity
  8
Construction
 62
     0
370
    -2
100
AcDbLine
 10
216.738976720174
 20
121.2694127773026
 30
0.0
 11
216.4134923497227
 21
117.282677280108
 31
0.0
  0
MTEXT
  5
2EF
330
2E5
100
AcDbEntity
  8
Construction
 62
     0
100
AcDbMText
 10
217.3356980660015
 20
128.5784278554928
 30
0.0
 40
4.0
 41
0.0
 71
     5
 72
     1
  1
R10
 11
0.0813710926128346
 21
0.9966838742986631
 31
0.0
 73
     1
 44
1.0
  0
SOLID
  5
2F0
330
2E5
100
AcDbEntity
  8
Construction
 62
     0
100
AcDbTrace
 10
215.7490364335236
 20
117.3369246751832
 30
0.0
 11
217.0779482659218
 21
117.2284298850327
 31
0.0
 12
216.0880079792713
 22
113.2959417829133
 32
0.0
 13
216.0880079792713
 23
113.2959417829133
 33
0.0
  0
POINT
  5
2F1
330
2E5
100
AcDbEntity
  8
Defpoints
 62
     0
100
AcDbPoint
 10
216.0880079792713
 20
113.2959417829133
 30
0.0
  0
POINT
  5
2F2
330
2E5
100
AcDbEntity
  8
Defpoints
 62
     0
100
AcDbPoint
 10
216.9017189053997
 20
123.2627805259
 30
0.0
  0
ENDBLK
  5
2EC
330
2E5
100
AcDbEntity
  8
0
100
AcDbBlockEnd
  0
BLOCK
  5
301
330
2F5
100
AcDbEntity
  8
0
100
AcDbBlockBegin
  2
*D10
 70
     1
 10
0.0
 20
0.0
 30
0.0
  3
*D10
  1

  0
LINE
  5
310
330
2F5
100
AcDbEntity
  8
Construction
 62
     0
370
    -2
100
AcDbLine
 10
221.9940736784498
 20
113.5197079370999
 30
0.0
 11
241.6373945791991
 21
113.5197079370999
 31
0.0
  0
LINE
  5
311
330
2F5
100
AcDbEntity
  8
Construction
 62
     0
370
    -2
100
AcDbLine
 10
221.9940736784498
 20
118.0
 30
0.0
 11
241.6373945791991
 21
118.0
 31
0.0
  0
LINE
  5
312
330
2F5
100
AcDbEntity
  8
Construction
 62
     0
370
    -2
100
AcDbLine
 10
238.637394579199
 20
109.5197079370999
 30
0.0
 11
238.637394579199
 21
105.5197079370999
 31
0.0
  0
LINE
  5
313
330
2F5
100
AcDbEntity
  8
Construction
 62
     0
370
    -2
100
AcDbLine
 10
238.637394579199
 20
122.0
 30
0.0
 11
238.637394579199
 21
126.1384089996841
 31
0.0
  0
LINE
  5
314
330
2F5
100
AcDbEntity
  8
Construction
 62
     0
370
    -2
100
AcDbLine
 10
238.637394579199
 20
113.5197079370999
 30
0.0
 11
238.637394579199
 21
118.0
 31
0.0
  0
SOLID
  5
315
330
2F5
100
AcDbEntity
  8
Construction
 62
     0
100
AcDbTrace
 10
237.9707279125324
 20
109.5197079370999
 30
0.0
 11
239.3040612458657
 21
109.5197079370999
 31
0.0
 12
238.637394579199
 22
113.5197079370999
 32
0.0
 13
238.637394579199
 23
113.5197079370999
 33
0.0
  0
SOLID
  5
316
330
2F5
100
AcDbEntity
  8
Construction
 62
     0
100
AcDbTrace
 10
237.9707279125324
 20
122.0
 30
0.0
 11
239.3040612458657
 21
122.0
 31
0.0
 12
238.637394579199
 22
118.0
 32
0.0
 13
238.637394579199
 23
118.0
 33
0.0
  0
MTEXT
  5
317
330
2F5
100
AcDbEntity
  8
Construction
 62
     0
100
AcDbMText
 10
238.637394579199
 20
133.1384089996842
 30
0.0
 40
4.0
 41
0.0
 71
     5
 72
     1
  1
4.5
 11
0.0000000000000001
 21
1.0
 31
0.0
 73
     1
 44
1.0
  0
POINT
  5
318
330
2F5
100
AcDbEntity
  8
Defpoints
 62
     0
100
AcDbPoint
 10
216.9940736784498
 20
113.5197079370999
 30
0.0
  0
POINT
  5
319
330
2F5
100
AcDbEntity
  8
Defpoints
 62
     0
100
AcDbPoint
 10
216.9940736784498
 20
118.0
 30
0.0
  0
POINT
  5
31A
330
2F5
100
AcDbEntity
  8
Defpoints
 62
     0
100
AcDbPoint
 10
238.637394579199
 20
118.0
 30
0.0
  0
ENDBLK
  5
302
330
2F5
100
AcDbEntity
  8
0
100
AcDbBlockEnd
  0
BLOCK
  5
323
330
31C
100
AcDbEntity
  8
0
100
AcDbBlockBegin
  2
*D11
 70
     1
 10
0.0
 20
0.0
 30
0.0
  3
*D11
  1

  0
LINE
  5
37F
330
31C
100
AcDbEntity
  8
Dimensions
 62
     0
370
    -2
100
AcDbLine
 10
218.7580368000233
 20
84.95115634116778
 30
0.0
 11
217.5792677714823
 21
109.2791855827507
 31
0.0
  0
MTEXT
  5
380
330
31C
100
AcDbEntity
  8
Dimensions
 62
     0
100
AcDbMText
 10
219.1129433489235
 20
77.62641613285147
 30
0.0
 40
4.0
 41
0.0
 71
     5
 72
     1
  1
R10
 11
0.0483963475772951
 21
-0.9988282102249502
 31
0.0
 73
     1
 44
1.0
  0
LINE
  5
381
330
31C
100
AcDbEntity
  8
Dimensions
 62
     0
370
    -2
100
AcDbLine
 10
216.9017189054002
 20
123.2627805259001
 30
0.0
 11
217.3856823811731
 21
113.2744984236505
 31
0.0
  0
SOLID
  5
382
330
31C
100
AcDbEntity
  8
Dimensions
 62
     0
100
AcDbTrace
 10
218.2451532449656
 20
109.3114498144689
 30
0.0
 11
216.913382297999
 21
109.2469213510325
 31
0.0
 12
217.3856823811731
 22
113.2744984236505
 32
0.0
 13
217.3856823811731
 23
113.2744984236505
 33
0.0
  0
POINT
  5
383
330
31C
100
AcDbEntity
  8
Defpoints
 62
     0
100
AcDbPoint
 10
217.3856823811731
 20
113.2744984236505
 30
0.0
  0
POINT
  5
384
330
31C
100
AcDbEntity
  8
Defpoints
 62
     0
100
AcDbPoint
 10
216.9017189054002
 20
123.2627805259001
 30
0.0
  0
ENDBLK
  5
324
330
31C
100
AcDbEntity
  8
0
100
AcDbBlockEnd
  0
BLOCK
  5
34D
330
342
100
AcDbEntity
  8
0
100
AcDbBlockBegin
  2
*D12
 70
     1
 10
0.0
 20
0.0
 30
0.0
  3
*D12
  1

  0
LINE
  5
3B7
330
342
100
AcDbEntity
  8
Dimensions
 62
     0
370
    -2
100
AcDbLine
 10
237.7479035244111
 20
118.0
 30
0.0
 11
262.7531052443072
 21
118.0
 31
0.0
  0
LINE
  5
3B8
330
342
100
AcDbEntity
  8
Dimensions
 62
     0
370
    -2
100
AcDbLine
 10
237.7479035244111
 20
153.0
 30
0.0
 11
262.7531052443072
 21
153.0
 31
0.0
  0
LINE
  5
3B9
330
342
100
AcDbEntity
  8
Dimensions
 62
     0
370
    -2
100
AcDbLine
 10
259.7531052443072
 20
122.0
 30
0.0
 11
259.7531052443073
 21
129.1666666666666
 31
0.0
  0
LINE
  5
3BA
330
342
100
AcDbEntity
  8
Dimensions
 62
     0
370
    -2
100
AcDbLine
 10
259.7531052443073
 20
149.0
 30
0.0
 11
259.7531052443073
 21
141.8333333333333
 31
0.0
  0
SOLID
  5
3BB
330
342
100
AcDbEntity
  8
Dimensions
 62
     0
100
AcDbTrace
 10
259.0864385776405
 20
122.0
 30
0.0
 11
260.4197719109738
 21
122.0
 31
0.0
 12
259.7531052443072
 22
118.0
 32
0.0
 13
259.7531052443072
 23
118.0
 33
0.0
  0
SOLID
  5
3BC
330
342
100
AcDbEntity
  8
Dimensions
 62
     0
100
AcDbTrace
 10
259.0864385776405
 20
149.0
 30
0.0
 11
260.4197719109739
 21
149.0
 31
0.0
 12
259.7531052443073
 22
153.0
 32
0.0
 13
259.7531052443073
 23
153.0
 33
0.0
  0
MTEXT
  5
3BD
330
342
100
AcDbEntity
  8
Dimensions
 62
     0
100
AcDbMText
 10
259.7531052443072
 20
135.5
 30
0.0
 40
4.0
 41
0.0
 71
     5
 72
     1
  1
35
 11
0.0000000000000001
 21
1.0
 31
0.0
 73
     1
 44
1.0
  0
POINT
  5
3BE
330
342
100
AcDbEntity
  8
Defpoints
 62
     0
100
AcDbPoint
 10
232.7479035244111
 20
118.0
 30
0.0
  0
POINT
  5
3BF
330
342
100
AcDbEntity
  8
Defpoints
 62
     0
100
AcDbPoint
 10
232.7479035244111
 20
153.0
 30
0.0
  0
POINT
  5
3C0
330
342
100
AcDbEntity
  8
Defpoints
 62
     0
100
AcDbPoint
 10
259.7531052443073
 20
153.0
 30
0.0
  0
ENDBLK
  5
34E
330
342
100
AcDbEntity
  8
0
100
AcDbBlockEnd
  0
BLOCK
  5
3CE
330
3C3
100
AcDbEntity
  8
0
100
AcDbBlockBegin
  2
*D13
 70
     1
 10
0.0
 20
0.0
 30
0.0
  3
*D13
  1

  0
LINE
  5
3F6
330
3C3
100
AcDbEntity
  8
Dimensions
 62
     0
370
    -2
100
AcDbLine
 10
-0.0010000000000897
 20
155.0
 30
0.0
 11
-0.0010000000000863
 21
210.8060528100009
 31
0.0
  0
LINE
  5
3F7
330
3C3
100
AcDbEntity
  8
Dimensions
 62
     0
370
    -2
100
AcDbLine
 10
419.9989999999999
 20
154.9999999999999
 30
0.0
 11
419.9989999999999
 21
210.8060528100009
 31
0.0
  0
LINE
  5
3F8
330
3C3
100
AcDbEntity
  8
Dimensions
 62
     0
370
    -2
100
AcDbLine
 10
3.998999999999913
 20
207.8060528100008
 30
0.0
 11
201.9989999999999
 21
207.8060528100008
 31
0.0
  0
LINE
  5
3F9
330
3C3
100
AcDbEntity
  8
Dimensions
 62
     0
370
    -2
100
AcDbLine
 10
415.9989999999999
 20
207.8060528100008
 30
0.0
 11
217.9989999999999
 21
207.8060528100008
 31
0.0
  0
SOLID
  5
3FA
330
3C3
100
AcDbEntity
  8
Dimensions
 62
     0
100
AcDbTrace
 10
3.998999999999913
 20
208.4727194766675
 30
0.0
 11
3.998999999999913
 21
207.1393861433342
 31
0.0
 12
-0.0010000000000865
 22
207.8060528100008
 32
0.0
 13
-0.0010000000000865
 23
207.8060528100008
 33
0.0
  0
SOLID
  5
3FB
330
3C3
100
AcDbEntity
  8
Dimensions
 62
     0
100
AcDbTrace
 10
415.9989999999999
 20
208.4727194766675
 30
0.0
 11
415.9989999999999
 21
207.1393861433342
 31
0.0
 12
419.9989999999999
 22
207.8060528100008
 32
0.0
 13
419.9989999999999
 23
207.8060528100008
 33
0.0
  0
MTEXT
  5
3FC
330
3C3
100
AcDbEntity
  8
Dimensions
 62
     0
100
AcDbMText
 10
209.9989999999999
 20
207.8060528100008
 30
0.0
 40
4.0
 41
0.0
 71
     5
 72
     1
  1
420
 73
     1
 44
1.0
  0
POINT
  5
3FD
330
3C3
100
AcDbEntity
  8
Defpoints
 62
     0
100
AcDbPoint
 10
-0.00100000000009
 20
150.0
 30
0.0
  0
POINT
  5
3FE
330
3C3
100
AcDbEntity
  8
Defpoints
 62
     0
100
AcDbPoint
 10
419.9989999999999
 20
149.9999999999999
 30
0.0
  0
POINT
  5
3FF
330
3C3
100
AcDbEntity
  8
Defpoints
 62
     0
100
AcDbPoint
 10
419.9989999999999
 20
207.8060528100008
 30
0.0
  0
ENDBLK
  5
3CF
330
3C3
100
AcDbEntity
  8
0
100
AcDbBlockEnd
  0
BLOCK
  5
3E8
330
3DD
100
AcDbEntity
  8
0
100
AcDbBlockBegin
  2
*D14
 70
     1
 10
0.0
 20
0.0
 30
0.0
  3
*D14
  1

  0
LINE
  5
3EB
330
3DD
100
AcDbEntity
  8
Dimensions
 62
     0
370
    -2
100
AcDbLine
 10
421.999
 20
152.9999999999999
 30
0.0
 11
456.1468081769643
 21
152.9999999999999
 31
0.0
  0
LINE
  5
3EC
330
3DD
100
AcDbEntity
  8
Dimensions
 62
     0
370
    -2
100
AcDbLine
 10
421.999
 20
-0.0000000000000014
 30
0.0
 11
456.1468081769642
 21
-0.0000000000000111
 31
0.0
  0
LINE
  5
3ED
330
3DD
100
AcDbEntity
  8
Dimensions
 62
     0
370
    -2
100
AcDbLine
 10
453.1468081769642
 20
148.9999999999999
 30
0.0
 11
453.1468081769641
 21
84.16666666666664
 31
0.0
  0
LINE
  5
3EE
330
3DD
100
AcDbEntity
  8
Dimensions
 62
     0
370
    -2
100
AcDbLine
 10
453.1468081769641
 20
3.999999999999989
 30
0.0
 11
453.1468081769641
 21
68.8333333333333
 31
0.0
  0
SOLID
  5
3EF
330
3DD
100
AcDbEntity
  8
Dimensions
 62
     0
100
AcDbTrace
 10
452.4801415102976
 20
148.9999999999999
 30
0.0
 11
453.8134748436309
 21
148.9999999999999
 31
0.0
 12
453.1468081769642
 22
152.9999999999999
 32
0.0
 13
453.1468081769642
 23
152.9999999999999
 33
0.0
  0
SOLID
  5
3F0
330
3DD
100
AcDbEntity
  8
Dimensions
 62
     0
100
AcDbTrace
 10
452.4801415102975
 20
3.99999999999999
 30
0.0
 11
453.8134748436308
 21
3.999999999999989
 31
0.0
 12
453.1468081769641
 22
-0.0000000000000102
 32
0.0
 13
453.1468081769641
 23
-0.0000000000000102
 33
0.0
  0
MTEXT
  5
3F1
330
3DD
100
AcDbEntity
  8
Dimensions
 62
     0
100
AcDbMText
 10
453.1468081769641
 20
76.50000000000004
 30
0.0
 40
4.0
 41
0.0
 71
     5
 72
     1
  1
153
 11
0.0000000000000001
 21
1.0
 31
0.0
 73
     1
 44
1.0
  0
POINT
  5
3F2
330
3DD
100
AcDbEntity
  8
Defpoints
 62
     0
100
AcDbPoint
 10
416.9989999999999
 20
152.9999999999999
 30
0.0
  0
POINT
  5
3F3
330
3DD
100
AcDbEntity
  8
Defpoints
 62
     0
100
AcDbPoint
 10
416.9989999999999
 20
0.0
 30
0.0
  0
POINT
  5
3F4
330
3DD
100
AcDbEntity
  8
Defpoints
 62
     0
100
AcDbPoint
 10
453.1468081769641
 20
-0.0000000000000102
 30
0.0
  0
ENDBLK
  5
3E9
330
3DD
100
AcDbEntity
  8
0
100
AcDbBlockEnd
  0
ENDSEC
  0
SECTION
  2
ENTITIES
  0
ARC
  5
126
102
{ACAD_REACTORS
330
156
330
180
102
}
330
1F
100
AcDbEntity
  8
CK_LEVEL_1
  6
Continuous
 62
     3
100
AcDbCircle
 10
206.4989999999998
 20
-375.6315789474
 30
0.0
 40
413.7648282568999
100
AcDbArc
 50
65.50717297449502
 51
114.492827025505
  0
LINE
  5
127
330
1F
100
AcDbEntity
  8
CK_LEVEL_1
  6
Continuous
 62
     3
100
AcDbLine
 10
214.7438398782
 20
113.4983779274999
 30
0.0
 11
35.9989999999999
 21
153.0
 31
0.0
  0
LINE
  5
128
330
1F
100
AcDbEntity
  8
CK_LEVEL_1
  6
Continuous
 62
     3
100
AcDbLine
 10
382.9989999999999
 20
152.9999999999999
 30
0.0
 11
219.2443074786998
 21
113.5410379467
 31
0.0
  0
LINE
  5
129
102
{ACAD_REACTORS
330
3DB
102
}
330
1F
100
AcDbEntity
  8
CK_LEVEL_1
  6
Continuous
 62
     3
100
AcDbLine
 10
419.9989999999999
 20
149.9999999999999
 30
0.0
 11
419.9989999999999
 21
3.0
 31
0.0
  0
LINE
  5
12A
102
{ACAD_REACTORS
330
3F5
102
}
330
1F
100
AcDbEntity
  8
CK_LEVEL_1
  6
Continuous
 62
     3
100
AcDbLine
 10
416.9989999999999
 20
152.9999999999999
 30
0.0
 11
382.9989999999999
 21
152.9999999999999
 31
0.0
  0
ARC
  5
12B
330
1F
100
AcDbEntity
  8
CK_LEVEL_1
  6
Continuous
 62
     3
100
AcDbCircle
 10
416.9989999999999
 20
149.9999999999999
 30
0.0
 40
3.0
100
AcDbArc
 50
0.0
 51
90.0
  0
ARC
  5
12C
330
1F
100
AcDbEntity
  8
CK_LEVEL_1
  6
Continuous
 62
     3
100
AcDbCircle
 10
382.1831341333999
 20
10.0
 30
0.0
 40
10.0
100
AcDbArc
 50
245.507172974495
 51
270.0
  0
LINE
  5
12D
102
{ACAD_REACTORS
330
3F5
102
}
330
1F
100
AcDbEntity
  8
CK_LEVEL_1
  6
Continuous
 62
     3
100
AcDbLine
 10
416.9989999999999
 20
0.0
 30
0.0
 11
382.1831341333999
 21
0.0
 31
0.0
  0
ARC
  5
12E
330
1F
100
AcDbEntity
  8
CK_LEVEL_1
  6
Continuous
 62
     3
100
AcDbCircle
 10
416.9989999999999
 20
3.0
 30
0.0
 40
3.0
100
AcDbArc
 50
270.0
 51
0.0
  0
ARC
  5
12F
102
{ACAD_REACTORS
330
32C
102
}
330
1F
100
AcDbEntity
  8
CK_LEVEL_1
  6
Continuous
 62
     3
100
AcDbCircle
 10
216.9017189053998
 20
123.2627805258999
 30
0.0
 40
10.0
100
AcDbArc
 50
257.5382440793976
 51
283.5479389880001
  0
LINE
  5
130
102
{ACAD_REACTORS
330
3DB
102
}
330
1F
100
AcDbEntity
  8
CK_LEVEL_1
  6
Continuous
 62
     3
100
AcDbLine
 10
-0.00100000000009
 20
150.0
 30
0.0
 11
-0.0009999999999764
 21
0.0010000000000332
 31
0.0
  0
LINE
  5
131
330
1F
100
AcDbEntity
  8
CK_LEVEL_1
  6
Continuous
 62
     3
100
AcDbLine
 10
35.9989999999999
 20
153.0
 30
0.0
 11
2.998999999999909
 21
153.0
 31
0.0
  0
ARC
  5
132
330
1F
100
AcDbEntity
  8
CK_LEVEL_1
  6
Continuous
 62
     3
100
AcDbCircle
 10
2.998999999999909
 20
150.0
 30
0.0
 40
3.0
100
AcDbArc
 50
90.0
 51
180.0
  0
ARC
  5
133
330
1F
100
AcDbEntity
  8
CK_LEVEL_1
  6
Continuous
 62
     3
100
AcDbCircle
 10
30.81486586659991
 20
10.0
 30
0.0
 40
10.0
100
AcDbArc
 50
270.0
 51
294.4928270255049
  0
LINE
  5
134
102
{ACAD_REACTORS
330
198
102
}
330
1F
100
AcDbEntity
  8
CK_LEVEL_1
  6
Continuous
 62
     3
100
AcDbLine
 10
30.81486586659991
 20
0.0
 30
0.0
 11
0.0
 21
0.0
 31
0.0
  0
ARC
  5
135
330
1F
100
AcDbEntity
  8
CK_LEVEL_1
  6
Continuous
 62
     3
100
AcDbCircle
 10
2.998999999999909
 20
3.0
 30
0.0
 40
3.0
100
AcDbArc
 50
180.0
 51
270.0
  0
ARC
  5
13C
330
1F
100
AcDbEntity
  8
CK_LEVEL_1
  6
Continuous
 62
     3
100
AcDbCircle
 10
0.0
 20
0.0010000000000332
 30
0.0
 40
0.001
100
AcDbArc
 50
180.0
 51
270.0
  0
DIMENSION
  5
144
102
{ACAD_XDICTIONARY
360
14F
102
}
102
{ACAD_REACTORS
330
156
102
}
330
1F
100
AcDbEntity
  8
Dimensions
100
AcDbDimension
  2
*D1
 10
206.4989999999998
 20
-375.6315789474002
 30
0.0
 11
96.23413967045877
 21
58.17062533446848
 31
0.0
 70
   164
  1
R414
 71
     5
 42
413.7648282569002
  3
ISO-25
100
AcDbRadialDimension
 15
104.5685479298047
 25
25.38153311157941
 35
0.0
 40
0.0
1001
ACAD
1000
DSTYLE
1002
{
1070
   288
1070
     1
1002
}
  0
DIMENSION
  5
169
102
{ACAD_XDICTIONARY
360
176
102
}
102
{ACAD_REACTORS
330
180
102
}
330
1F
100
AcDbEntity
  8
Dimensions
100
AcDbDimension
  2
*D2
 10
205.3056612523662
 20
0.0000000000000003
 30
0.0
 11
205.3056612523662
 21
19.06662465475
 31
0.0
 70
    32
  1
38
 71
     5
 42
38.13324930949994
  3
ISO-25
100
AcDbAlignedDimension
 13
206.4989999999999
 23
38.13324930949994
 33
0.0
 14
206.4989999999999
 24
0.0
 34
0.0
 50
90.0
100
AcDbRotatedDimension
  0
DIMENSION
  5
181
102
{ACAD_XDICTIONARY
360
18E
102
}
102
{ACAD_REACTORS
330
198
102
}
330
1F
100
AcDbEntity
  8
Dimensions
100
AcDbDimension
  2
*D3
 10
382.1831341333999
 20
-19.18286285636816
 30
0.0
 11
206.4989999999999
 21
-19.18286285636816
 31
0.0
 70
    32
  1
(351)
 71
     5
 42
351.3682682668
  3
ISO-25
100
AcDbAlignedDimension
 13
30.81486586659991
 23
0.0
 33
0.0
 14
382.1831341333999
 24
0.0
 34
0.0
100
AcDbRotatedDimension
  0
LINE
  5
1D6
330
1F
100
AcDbEntity
  8
Dimensions
  6
HIDDEN
100
AcDbLine
 10
371.1946355374277
 20
0.0
 30
0.0
 11
211.6102294150816
 21
0.0000000000000002
 31
0.0
  0
DIMENSION
  5
261
330
1F
100
AcDbEntity
  8
Dimensions
100
AcDbDimension
  2
*D4
 10
237.7489999999066
 20
126.1414002253133
 30
0.0
 11
215.4906197232051
 21
126.1414002253133
 31
0.0
 70
   160
  1
43.5
 71
     5
 42
43.37499999978496
  3
ISO-25
100
AcDbAlignedDimension
 13
194.3740000001216
 23
112.9637177179654
 33
0.0
 14
237.7489999999066
 24
112.9637177179654
 34
0.0
100
AcDbRotatedDimension
  0
DIMENSION
  5
2C9
330
1F
100
AcDbEntity
  8
Dimensions
100
AcDbDimension
  2
*D8
 10
35.9989999999999
 20
189.7216301535161
 30
0.0
 11
209.4989999999999
 21
189.7216301535161
 31
0.0
 70
    32
 71
     5
 42
347.0
  3
ISO-25
100
AcDbAlignedDimension
 13
382.9989999999999
 23
152.9999999999999
 33
0.0
 14
35.9989999999999
 24
153.0
 34
0.0
100
AcDbRotatedDimension
  0
DIMENSION
  5
31B
102
{ACAD_XDICTIONARY
360
325
102
}
102
{ACAD_REACTORS
330
32C
102
}
330
1F
100
AcDbEntity
  8
Dimensions
100
AcDbDimension
  2
*D11
 10
216.9017189054002
 20
123.2627805259001
 30
0.0
 11
219.1129433489235
 21
77.62641613285147
 31
0.0
 70
   164
 71
     5
 42
10.00000000000005
  3
ISO-25
100
AcDbRadialDimension
 15
217.3856823811731
 25
113.2744984236505
 35
0.0
 40
0.0
1001
ACAD
1000
DSTYLE
1002
{
1070
   288
1070
     1
1002
}
  0
DIMENSION
  5
341
330
1F
100
AcDbEntity
  8
Dimensions
100
AcDbDimension
  2
*D12
 10
259.7531052443073
 20
153.0
 30
0.0
 11
259.7531052443072
 21
135.5
 31
0.0
 70
    32
 71
     5
 42
34.99999999999998
  3
ISO-25
100
AcDbAlignedDimension
 13
232.7479035244111
 23
118.0
 33
0.0
 14
232.7479035244111
 24
153.0
 34
0.0
 50
90.0
100
AcDbRotatedDimension
  0
LINE
  5
3C1
330
1F
100
AcDbEntity
  8
Dimensions
  6
HIDDEN
100
AcDbLine
 10
48.02868089974163
 20
153.0
 30
0.0
 11
237.7479035244111
 21
153.0
 31
0.0
  0
DIMENSION
  5
3C2
102
{ACAD_XDICTIONARY
360
3D0
102
}
102
{ACAD_REACTORS
330
3DB
102
}
330
1F
100
AcDbEntity
  8
Dimensions
100
AcDbDimension
  2
*D13
 10
419.9989999999999
 20
207.8060528100008
 30
0.0
 11
209.9989999999999
 21
207.8060528100008
 31
0.0
 70
    32
 71
     5
 42
420.0000000000001
  3
ISO-25
100
AcDbAlignedDimension
 13
-0.00100000000009
 23
150.0
 33
0.0
 14
419.9989999999999
 24
149.9999999999999
 34
0.0
100
AcDbRotatedDimension
  0
DIMENSION
  5
3DC
102
{ACAD_XDICTIONARY
360
3EA
102
}
102
{ACAD_REACTORS
330
3F5
102
}
330
1F
100
AcDbEntity
  8
Dimensions
100
AcDbDimension
  2
*D14
 10
453.1468081769641
 20
-0.0000000000000102
 30
0.0
 11
453.1468081769641
 21
76.50000000000004
 31
0.0
 70
    32
 71
     5
 42
152.9999999999999
  3
ISO-25
100
AcDbAlignedDimension
 13
416.9989999999999
 23
152.9999999999999
 33
0.0
 14
416.9989999999999
 24
0.0
 34
0.0
 50
90.0
100
AcDbRotatedDimension
  0
MTEXT
  5
419
330
1F
100
AcDbEntity
  8
Dimensions
100
AcDbMText
 10
179.2948487508463
 20
-35.14645899691606
 30
0.0
 40
8.0
 41
221.4697
 71
     1
 72
     5
  1
{\fTimes New Roman|b0|i0|c0|p18;Sheer line template}
 73
     1
 44
1.0
  0
ENDSEC
  0
SECTION
  2
OBJECTS
  0
DICTIONARY
  5
C
330
0
100
AcDbDictionary
281
     1
  3
ACAD_GROUP
350
D
  3
ACAD_LAYOUT
350
1A
  3
ACAD_MLINESTYLE
350
17
  3
ACAD_PLOTSETTINGS
350
19
  3
ACAD_PLOTSTYLENAME
350
E
  3
AcDbVariableDictionary
350
8F
  3
ASE_INDEX_DICTIONARY
350
8B
  0
DICTIONARY
  5
14F
330
144
100
AcDbDictionary
280
     1
281
     1
  3
ACAD_DIMASSOC
360
156
  0
DICTIONARY
  5
176
330
169
100
AcDbDictionary
280
     1
281
     1
  3
ACAD_DIMASSOC
360
180
  0
DICTIONARY
  5
18E
330
181
100
AcDbDictionary
280
     1
281
     1
  3
ACAD_DIMASSOC
360
198
  0
DICTIONARY
  5
325
330
31B
100
AcDbDictionary
280
     1
281
     1
  3
ACAD_DIMASSOC
360
32C
  0
DICTIONARY
  5
3D0
330
3C2
100
AcDbDictionary
280
     1
281
     1
  3
ACAD_DIMASSOC
360
3DB
  0
DICTIONARY
  5
3EA
330
3DC
100
AcDbDictionary
280
     1
281
     1
  3
ACAD_DIMASSOC
360
3F5
  0
DICTIONARY
  5
D
102
{ACAD_REACTORS
330
C
102
}
330
C
100
AcDbDictionary
281
     1
  0
DICTIONARY
  5
1A
102
{ACAD_REACTORS
330
C
102
}
330
C
100
AcDbDictionary
281
     1
  3
Layout1
350
1E
  3
Layout2
350
26
  3
Model
350
22
  0
DICTIONARY
  5
17
102
{ACAD_REACTORS
330
C
102
}
330
C
100
AcDbDictionary
281
     1
  3
Standard
350
18
  0
DICTIONARY
  5
19
102
{ACAD_REACTORS
330
C
102
}
330
C
100
AcDbDictionary
281
     1
  0
ACDBDICTIONARYWDFLT
  5
E
102
{ACAD_REACTORS
330
C
102
}
330
C
100
AcDbDictionary
281
     1
  3
Normal
350
F
100
AcDbDictionaryWithDefault
340
F
  0
DICTIONARY
  5
8F
102
{ACAD_REACTORS
330
C
102
}
330
C
100
AcDbDictionary
281
     1
  3
DIMASSOC
350
91
  3
HIDETEXT
350
90
  0
DICTIONARY
  5
8B
102
{ACAD_REACTORS
330
C
102
}
330
C
100
AcDbDictionary
281
     1
  3
ASEBlockHierarchyIndexRecord
350
8D
1001
DCO15
1040
1764482164.831
  0
DIMASSOC
  5
156
102
{ACAD_REACTORS
330
14F
102
}
330
14F
100
AcDbDimAssoc
330
144
 90
        2
 70
     0
 71
     0
  1
AcDbOsnapPointRef
 72
     3
331
126
 73
     2
 91
        0
 40
0.0
 10
206.4989999999998
 20
-375.6315789474
 30
0.0
 75
     0
  0
DIMASSOC
  5
180
102
{ACAD_REACTORS
330
176
102
}
330
176
100
AcDbDimAssoc
330
169
 90
        1
 70
     0
 71
     0
  1
AcDbOsnapPointRef
 72
     5
331
126
 73
     2
 91
        0
 40
1.570796326794896
 10
206.4989999999999
 20
38.13324930949994
 30
0.0
 75
     0
  0
DIMASSOC
  5
198
102
{ACAD_REACTORS
330
18E
102
}
330
18E
100
AcDbDimAssoc
330
181
 90
        1
 70
     0
 71
     0
  1
AcDbOsnapPointRef
 72
    13
331
134
 73
     2
 91
        0
 40
0.0
 10
30.81486586659991
 20
0.0
 30
0.0
 75
     0
  0
DIMASSOC
  5
32C
102
{ACAD_REACTORS
330
325
102
}
330
325
100
AcDbDimAssoc
330
31B
 90
        2
 70
     0
 71
     0
  1
AcDbOsnapPointRef
 72
     3
331
12F
 73
     2
 91
        0
 40
0.0
 10
216.9017189053998
 20
123.2627805258999
 30
0.0
 75
     0
  0
DIMASSOC
  5
3DB
102
{ACAD_REACTORS
330
3D0
102
}
330
3D0
100
AcDbDimAssoc
330
3C2
 90
        3
 70
     0
 71
     0
  1
AcDbOsnapPointRef
 72
    13
331
130
 73
     2
 91
        0
 40
0.0
 10
-0.00100000000009
 20
150.0
 30
0.0
 75
     0
  1
AcDbOsnapPointRef
 72
    13
331
129
 73
     2
 91
        0
 40
0.0
 10
419.9989999999999
 20
149.9999999999999
 30
0.0
 75
     0
  0
DIMASSOC
  5
3F5
102
{ACAD_REACTORS
330
3EA
102
}
330
3EA
100
AcDbDimAssoc
330
3DC
 90
        3
 70
     0
 71
     0
  1
AcDbOsnapPointRef
 72
    13
331
12A
 73
     2
 91
        0
 40
0.0
 10
416.9989999999999
 20
152.9999999999999
 30
0.0
 75
     0
  1
AcDbOsnapPointRef
 72
    13
331
12D
 73
     2
 91
        0
 40
0.0
 10
416.9989999999999
 20
0.0
 30
0.0
 75
     0
  0
LAYOUT
  5
1E
102
{ACAD_REACTORS
330
1A
102
}
330
1A
100
AcDbPlotSettings
  1

  2
Canon MP160 Printer
  4

  6

 40
0.0
 41
0.0
 42
0.0
 43
0.0
 44
0.0
 45
0.0
 46
0.0
 47
0.0
 48
0.0
 49
0.0
140
0.0
141
0.0
142
1.0
143
1.0
 70
   688
 72
     0
 73
     0
 74
     5
  7

 75
    16
147
1.0
148
0.0
149
0.0
100
AcDbLayout
  1
Layout1
 70
     1
 71
     1
 10
0.0
 20
0.0
 11
420.0
 21
297.0
 12
0.0
 22
0.0
 32
0.0
 14
1.000000000000000E+20
 24
1.000000000000000E+20
 34
1.000000000000000E+20
 15
-1.000000000000000E+20
 25
-1.000000000000000E+20
 35
-1.000000000000000E+20
146
0.0
 13
0.0
 23
0.0
 33
0.0
 16
1.0
 26
0.0
 36
0.0
 17
0.0
 27
1.0
 37
0.0
 76
     0
330
1B
  0
LAYOUT
  5
26
102
{ACAD_REACTORS
330
1A
102
}
330
1A
100
AcDbPlotSettings
  1

  2
Canon MP160 Printer
  4

  6

 40
0.0
 41
0.0
 42
0.0
 43
0.0
 44
0.0
 45
0.0
 46
0.0
 47
0.0
 48
0.0
 49
0.0
140
0.0
141
0.0
142
1.0
143
1.0
 70
   688
 72
     0
 73
     0
 74
     5
  7

 75
    16
147
1.0
148
0.0
149
0.0
100
AcDbLayout
  1
Layout2
 70
     1
 71
     2
 10
0.0
 20
0.0
 11
12.0
 21
9.0
 12
0.0
 22
0.0
 32
0.0
 14
0.0
 24
0.0
 34
0.0
 15
0.0
 25
0.0
 35
0.0
146
0.0
 13
0.0
 23
0.0
 33
0.0
 16
1.0
 26
0.0
 36
0.0
 17
0.0
 27
1.0
 37
0.0
 76
     0
330
23
  0
LAYOUT
  5
22
102
{ACAD_REACTORS
330
1A
102
}
330
1A
100
AcDbPlotSettings
  1

  2
Canon MP160 Printer
  4
A4
  6

 40
4.180416584014892
 41
5.83141803741455
 42
4.180404663085937
 43
3.757080078125
 44
209.9733276367187
 45
296.9683227539062
 46
0.0
 47
0.0
 48
-60.95955835232098
 49
-96.00650980427724
140
520.3357808856358
141
231.5638866918944
142
1.0
143
2.022742340974867
 70
 11952
 72
     1
 73
     1
 74
     4
  7

 75
     0
147
0.4943783396149441
148
60.95955835232098
149
96.00650980427724
100
AcDbLayout
  1
Model
 70
     1
 71
     0
 10
0.0
 20
0.0
 11
12.0
 21
9.0
 12
0.0
 22
0.0
 32
0.0
 14
0.0
 24
0.0
 34
0.0
 15
0.0
 25
0.0
 35
0.0
146
0.0
 13
0.0
 23
0.0
 33
0.0
 16
1.0
 26
0.0
 36
0.0
 17
0.0
 27
1.0
 37
0.0
 76
     0
330
1F
  0
MLINESTYLE
  5
18
102
{ACAD_REACTORS
330
17
102
}
330
17
100
AcDbMlineStyle
  2
STANDARD
 70
     0
  3

 62
   256
 51
90.0
 52
90.0
 71
     2
 49
0.5
 62
   256
  6
BYLAYER
 49
-0.5
 62
   256
  6
BYLAYER
  0
ACDBPLACEHOLDER
  5
F
102
{ACAD_REACTORS
330
E
102
}
330
E
  0
DICTIONARYVAR
  5
91
102
{ACAD_REACTORS
330
8F
102
}
330
8F
100
DictionaryVariables
280
     0
  1
2
  0
DICTIONARYVAR
  5
90
102
{ACAD_REACTORS
330
8F
102
}
330
8F
100
DictionaryVariables
280
     0
  1
1
  0
XRECORD
  5
8D
102
{ACAD_REACTORS
330
8B
102
}
330
8B
100
AcDbXrecord
280
     1
  0
ENDSEC
  0
EOF
